topgood
一代宗师

[更 早] [欧美] [其它] [WEB-1080P] 谋杀弗莱德·汉普顿 The.Murder.of.Fred.Hampton.1971.1080p.HMAX.WEBRip.DD2.0.x264-tijuco 5.

-->

帖子完整标题:谋杀弗莱德·汉普顿 The.Murder.of.Fred.Hampton.1971.1080p.HMAX.WEBRip.DD2.0.x264-tijuco 5.37GB



◎标  题 谋杀弗莱德·汉普顿
◎片  名 The Murder of Fred Hampton
◎年  代 1971
◎产  地 美国
◎类  别 纪录片 / 传记 / 犯罪
◎语  言 英语
◎上映日期 2006-04-01
◎IMDb评分 7.5/10 (441人评价)
◎IMDb链接 https://www.imdb.com/title/tt0067456/
◎豆瓣链接 https://movie.douban.com/subject/1867716/
◎片  长 88 分钟
◎演  员 麦克·格雷 Mike Gray
      麦克·格雷 Mike Gray

◎简  介
  Fred Hampton was the leader of the Illinois Chapter of the Black Panther Party. This film depicts his brutal murder by the Chicago police and its subsequent investigation, but also documents his activities in organizing the Chapter, his public speeches, and the programs he founded for children during the last eighteen months of his life.

Video
ID : 1
Format : AVC
Format/Info : Advanced Video Codec
Format profile : [email protected]
Format settings : CABAC / 4 Ref Frames
Format settings, CABAC : Yes
Format settings, Reference frames : 4 frames
Codec ID : V_MPEG4/ISO/AVC
Duration : 1 h 29 min
Bit rate mode : Variable
Bit rate : 8 250 kb/s
Maximum bit rate : 12.4 Mb/s
Width : 1 920 pixels
Height : 1 080 pixels
Display aspect ratio : 16:9
Frame rate mode : Constant
Frame rate : 23.976 (24000/1001/189150) FPS
Color space : YUV
Chroma subsampling : 4:2:0
Bit depth : 8 bits
Scan type : Progressive
Bits/(Pixel*Frame) : 0.166
Stream size : 5.13 GiB (96%)
Writing library : x264 core 157 r2965 861cec4
Encoding settings : cabac=1 / ref=4 / deblock=1:0:0 / analyse=0x3:0x113 / me=hex / subme=7 / psy=1 / psy_rd=1.00:0.00 / mixed_ref=1 / me_range=16 / chroma_me=1 / trellis=1 / 8x8dct=1 / cqm=0 / deadzone=21,11 / fast_pskip=1 / chroma_qp_offset=-2 / threads=34 / lookahead_threads=5 / sliced_threads=0 / nr=0 / decimate=1 / interlaced=0 / bluray_compat=0 / constrained_intra=0 / bframes=3 / b_pyramid=2 / b_adapt=1 / b_bias=0 / direct=1 / weightb=1 / open_gop=0 / weightp=2 / keyint=96 / keyint_min=96 / scenecut=40 / intra_refresh=0 / rc_lookahead=40 / rc=2pass / mbtree=1 / bitrate=8250 / ratetol=1.0 / qcomp=0.60 / qpmin=0 / qpmax=69 / qpstep=4 / cplxblur=20.0 / qblur=0.5 / vbv_maxrate=12375 / vbv_bufsize=6187 / nal_hrd=vbr / filler=0 / ip_ratio=1.40 / aq=1:1.00
Default : Yes
Forced : No
Color range : Limited
Color primaries : BT.709
Transfer characteristics : BT.709
Matrix coefficients : BT.709

Audio
ID : 2
Format : AC-3
Format/Info : Audio Coding 3
Commercial name : Dolby Digital
Codec ID : A_AC3
Duration : 1 h 29 min
Bit rate mode : Constant
Bit rate : 384 kb/s
Channel(s) : 2 channels
Channel layout : L R
Sampling rate : 48.0 kHz
Frame rate : 31.250 FPS (1536 SPF)
Compression mode : Lossy
Stream size : 245 MiB (4%)
Title : English
Language : English
Service kind : Complete Main
Default : Yes
Forced : No

Text
ID : 3
Format : UTF-8
Codec ID : S_TEXT/UTF8
Codec ID/Info : UTF-8 Plain Text
Duration : 1 h 28 min
Bit rate : 481 b/s
Frame rate : 0.509 FPS
Count of elements : 2705
Stream size : 312 KiB (0%)
Title : English (SDH)
Language : English
Default : No
Forced : No





1 个附件 售价 大小 下载 时间

The.Murder.of.Fred.Hampton.1971.1080p.HMAX.WEBRip.DD2.0.x264-tijuco.torrent 0 金币 14.09K 224 次 2月前

#1楼
发帖时间:2022-09-29 19:27:26   |   回复数:0
游客组