topgood
一代宗师

[更 早] [其它] [其它] [WEB-1080P] 替罪羊 The.Scapegoat.1959.1080p.HMAX.WEBRip.DD2.0.x264-tijuco 5.56GB

-->

帖子完整标题:替罪羊 The.Scapegoat.1959.1080p.HMAX.WEBRip.DD2.0.x264-tijuco 5.56GB



◎译  名 替罪羊
◎片  名 The Scapegoat
◎年  代 1959
◎产  地 英国 / 美国
◎类  别 悬疑 / 犯罪
◎语  言 英语
◎上映日期 1959-08-06
◎IMDb链接 https://www.imdb.com/title/tt0053247/
◎豆瓣评分 7.6/10 (83人评价)
◎豆瓣链接 https://movie.douban.com/subject/2568112/
◎片  长 Israel: 89 分钟
◎导  演 罗伯特·哈默 Robert Hamer (id:1000987)
◎编  剧 罗伯特·哈默 Robert Hamer (id:1000987)
      达芙妮·杜穆里埃 Daphne Du Maurier (id:1045383)
      戈尔·维达尔 Gore Vidal (id:1027965)
◎演  员 亚历克·吉尼斯 Alec Guinness (id:1000109)
      贝蒂·戴维斯 Bette Davis (id:1002703)
      妮可·茂瑞 Nicole Maurey (id:1037039)
      艾琳·沃斯 Irene Worth (id:1168239)
      帕米拉·布朗 Pamela Brown (id:1185474)
      格佛雷·肯 Geoffrey Keen (id:1105060)
      艾伦·韦布 Alan Webb (id:1160740)
      Harold Kasket Harold Kasket (id:1109584)
      诺尔·霍莱特 Noel Howlett (id:1094301)
      莱斯利·弗伦奇 Leslie French (id:1086532)
      帕梅拉·布朗 Pamela Brown (id:1076895)
      玛丽亚·布里特涅娃 Maria Britneva (id:1075417)
      埃迪·伯恩 Eddie Byrne (id:1068113)
      彼得·萨利斯 Peter Sallis (id:1007132)
      彼得布尔 Peter Bull (id:1002866)
      迈克尔·鲍肯 Michael Balcon (id:1048404)
      Dennis Van Thal Dennis Van Thal (id:1022431)
      布罗尼斯洛·卡帕 Bronislau Kaper (id:1008098)
      保罗·贝森 Paul Beeson (id:1042452)
      杰克·哈里斯 Jack Harris (id:1013108)
      艾琳·霍华德 Irene Howard (id:1099854)
      艾略特·斯科特 Elliot Scott (id:1012786)
      Olga Lehmann Olga Lehmann (id:1006538)
      Elsie Alder Elsie Alder (id:1057633)
      汤姆·佩夫斯纳 Tom Pevsner (id:1030441)
      汤姆·霍华德 Tom Howard (id:1286991)

◎简  介
  A French count schemes to kill his wife and implicate a mild-mannered English schoolteacher whom he resembles

Video
ID : 1
Format : AVC
Format/Info : Advanced Video Codec
Format profile : [email protected]
Format settings : CABAC / 4 Ref Frames
Format settings, CABAC : Yes
Format settings, Reference frames : 4 frames
Codec ID : V_MPEG4/ISO/AVC
Duration : 1 h 32 min
Bit rate mode : Variable
Bit rate : 8 250 kb/s
Maximum bit rate : 12.4 Mb/s
Width : 1 920 pixels
Height : 1 080 pixels
Display aspect ratio : 16:9
Frame rate mode : Constant
Frame rate : 23.976 (24000/1001/189150) FPS
Color space : YUV
Chroma subsampling : 4:2:0
Bit depth : 8 bits
Scan type : Progressive
Bits/(Pixel*Frame) : 0.166
Stream size : 5.31 GiB (96%)
Writing library : x264 core 157 r2965 861cec4
Encoding settings : cabac=1 / ref=4 / deblock=1:0:0 / analyse=0x3:0x113 / me=hex / subme=7 / psy=1 / psy_rd=1.00:0.00 / mixed_ref=1 / me_range=16 / chroma_me=1 / trellis=1 / 8x8dct=1 / cqm=0 / deadzone=21,11 / fast_pskip=1 / chroma_qp_offset=-2 / threads=34 / lookahead_threads=5 / sliced_threads=0 / nr=0 / decimate=1 / interlaced=0 / bluray_compat=0 / constrained_intra=0 / bframes=3 / b_pyramid=2 / b_adapt=1 / b_bias=0 / direct=1 / weightb=1 / open_gop=0 / weightp=2 / keyint=96 / keyint_min=96 / scenecut=40 / intra_refresh=0 / rc_lookahead=40 / rc=2pass / mbtree=1 / bitrate=8250 / ratetol=1.0 / qcomp=0.60 / qpmin=0 / qpmax=69 / qpstep=4 / cplxblur=20.0 / qblur=0.5 / vbv_maxrate=12375 / vbv_bufsize=6187 / nal_hrd=vbr / filler=0 / ip_ratio=1.40 / aq=1:1.00
Default : Yes
Forced : No
Color range : Limited
Color primaries : BT.709
Transfer characteristics : BT.709
Matrix coefficients : BT.709

Audio
ID : 2
Format : AC-3
Format/Info : Audio Coding 3
Commercial name : Dolby Digital
Codec ID : A_AC3
Duration : 1 h 32 min
Bit rate mode : Constant
Bit rate : 384 kb/s
Channel(s) : 2 channels
Channel layout : L R
Sampling rate : 48.0 kHz
Frame rate : 31.250 FPS (1536 SPF)
Compression mode : Lossy
Stream size : 253 MiB (4%)
Title : English
Language : English
Service kind : Complete Main
Default : Yes
Forced : No

Text
ID : 3
Format : UTF-8
Codec ID : S_TEXT/UTF8
Codec ID/Info : UTF-8 Plain Text
Duration : 1 h 31 min
Bit rate : 333 b/s
Frame rate : 0.375 FPS
Count of elements : 2051
Stream size : 223 KiB (0%)
Title : English (SDH)
Language : English
Default : No
Forced : No





1 个附件 售价 大小 下载 时间

The.Scapegoat.1959.1080p.HMAX.WEBRip.DD2.0.x264-tijuco.torrent 0 金币 14.53K 280 次 2月前

#1楼
发帖时间:2022-09-29 19:25:59   |   回复数:0
游客组