topgood
一代宗师

[更 早] [欧美] [剧情] [WEB-1080P] 仙乐飘飘处处闻 The.Singing.Nun.1966.1080p.HMAX.WEBRip.DD2.0.x264-tijuco 5.82GB

-->

帖子完整标题:仙乐飘飘处处闻 The.Singing.Nun.1966.1080p.HMAX.WEBRip.DD2.0.x264-tijuco 5.82GB



◎标  题 仙乐飘飘处处闻
◎片  名 The Singing Nun
◎年  代 1966
◎产  地 美国
◎类  别 剧情 / 喜剧 / 音乐 / 传记
◎语  言 英语
◎上映日期 1966-04-02
◎IMDb评分 6/10 (1341人评价)
◎IMDb链接 https://www.imdb.com/title/tt0060983/
◎豆瓣链接 https://movie.douban.com/subject/3063369/
◎片  长 97 分钟
◎导  演 亨利·科斯特 Henry Koster
◎编  剧 约翰·菲里亚 John Furia
      萨莉·本森 Sally Benson
◎演  员 查德·艾微特 Chad Everett
      Ralph Smiley Ralph Smiley
      亨利·柯登 Henry Corden
      南茜·沃尔特斯 Nancy Walters
      Ruth Warshawsky Ruth Warshawsky
      黛比·雷诺斯 Debbie Reynolds
      罗伯特威廉姆斯 Robert Williams
      里卡多·蒙特尔班 Ricardo Montalban
      阿格妮丝·摩尔海德 Agnes Moorehead
      迈克尔·佩特 Michael Pate
      埃德·沙利文 Ed Sullivan
      葛丽亚·嘉逊 Greer Garson
      汤姆·德雷克 Tom Drake
      凯瑟琳·罗斯 Katharine Ross
      查尔斯·鲁宾逊 Charles Robinson
      Orville Sherman Orville Sherman
      Dinny Powell Dinny Powell
      Isabelle Dwan Isabelle Dwan
      Pitt Herbert Pitt Herbert
      Marina Koshetz Marina Koshetz
      Joseph Mell Joseph Mell
      Larry D. Mann Larry D. Mann
      Gregg Martell Gregg Martell
      乔恩·洛默尔 Jon Lormer
      Joe Ploski Joe Ploski
      Karen Norris Karen Norris
      John Damler John Damler
      Vic Perrin Vic Perrin
      Andre Philippe Andre Philippe
      胡安妮塔·摩尔 Juanita Moore
      多萝西·帕特里克 Dorothy Patrick
      Anne Wakefield Anne Wakefield
      汉克·穆恩简 Hank Moonjean
      John Beck John Beck
      米尔顿·R·克拉斯纳 Milton R. Krasner
      Rita Roland Rita Roland
      亨利·格雷斯 Henry Grace
      乔治·W·戴维斯 George W. Davis
      尤里·麦克利里 Urie McCleary
      杰瑞·汪德利希 Jerry Wunderlich
      Marvin G. Westmore Marvin G. Westmore
      威廉·塔特尔 William Tuttle
      Lynn Guthrie Lynn Guthrie

◎简  介
  Young and inexperienced Sister Ann has just arrived at her next posting at Samaritan House, a Dominican order located in a disreputable neighborhood of Ghent, Belgium. Sister Ann is enthusiastic, progressive but naive, all which irks one of the senior sisters, Sister Cluny, especially the fact that Sister Ann has a prized material possession, a guitar she's named Adele. Sister ...

Video
ID : 1
Format : AVC
Format/Info : Advanced Video Codec
Format profile : [email protected]
Format settings : CABAC / 4 Ref Frames
Format settings, CABAC : Yes
Format settings, Reference frames : 4 frames
Codec ID : V_MPEG4/ISO/AVC
Duration : 1 h 36 min
Bit rate mode : Variable
Bit rate : 8 250 kb/s
Maximum bit rate : 12.4 Mb/s
Width : 1 920 pixels
Height : 816 pixels
Display aspect ratio : 2.35:1
Frame rate mode : Constant
Frame rate : 23.976 (24000/1001/189150) FPS
Color space : YUV
Chroma subsampling : 4:2:0
Bit depth : 8 bits
Scan type : Progressive
Bits/(Pixel*Frame) : 0.220
Stream size : 5.56 GiB (96%)
Writing library : x264 core 157 r2965 861cec4
Encoding settings : cabac=1 / ref=4 / deblock=1:0:0 / analyse=0x3:0x113 / me=hex / subme=7 / psy=1 / psy_rd=1.00:0.00 / mixed_ref=1 / me_range=16 / chroma_me=1 / trellis=1 / 8x8dct=1 / cqm=0 / deadzone=21,11 / fast_pskip=1 / chroma_qp_offset=-2 / threads=25 / lookahead_threads=4 / sliced_threads=0 / nr=0 / decimate=1 / interlaced=0 / bluray_compat=0 / constrained_intra=0 / bframes=3 / b_pyramid=2 / b_adapt=1 / b_bias=0 / direct=1 / weightb=1 / open_gop=0 / weightp=2 / keyint=96 / keyint_min=96 / scenecut=40 / intra_refresh=0 / rc_lookahead=40 / rc=2pass / mbtree=1 / bitrate=8250 / ratetol=1.0 / qcomp=0.60 / qpmin=0 / qpmax=69 / qpstep=4 / cplxblur=20.0 / qblur=0.5 / vbv_maxrate=12375 / vbv_bufsize=6187 / nal_hrd=vbr / filler=0 / ip_ratio=1.40 / aq=1:1.00
Default : Yes
Forced : No
Color range : Limited
Color primaries : BT.709
Transfer characteristics : BT.709
Matrix coefficients : BT.709

Audio
ID : 2
Format : AC-3
Format/Info : Audio Coding 3
Commercial name : Dolby Digital
Codec ID : A_AC3
Duration : 1 h 36 min
Bit rate mode : Constant
Bit rate : 384 kb/s
Channel(s) : 2 channels
Channel layout : L R
Sampling rate : 48.0 kHz
Frame rate : 31.250 FPS (1536 SPF)
Compression mode : Lossy
Stream size : 265 MiB (4%)
Title : English
Language : English
Service kind : Complete Main
Default : Yes
Forced : No

Text
ID : 3
Format : UTF-8
Codec ID : S_TEXT/UTF8
Codec ID/Info : UTF-8 Plain Text
Duration : 1 h 34 min
Bit rate : 334 b/s
Frame rate : 0.388 FPS
Count of elements : 2198
Stream size : 231 KiB (0%)
Title : English (SDH)
Language : English
Default : No
Forced : No





1 个附件 售价 大小 下载 时间

The.Singing.Nun.1966.1080p.HMAX.WEBRip.DD2.0.x264-tijuco.torrent 0 金币 15.18K 483 次 2月前

#1楼
发帖时间:2022-09-29 19:24:20   |   回复数:0
游客组