topgood
一代宗师

[2012] [其它] [剧情] [WEB-1080P] 当我看着你 When.I.Saw.You.2012.ARABIC.ENSUBBED.1080p.AMZN.WEBRip.DDP5.1.x264-ETHiCS 6

-->

帖子完整标题:当我看着你 When.I.Saw.You.2012.ARABIC.ENSUBBED.1080p.AMZN.WEBRip.DDP5.1.x264-ETHiCS 6.08GB



◎标  题 当我看着你
◎译  名 When I Saw You / Lamma shoftak
◎片  名 لما شفتك
◎年  代 2012
◎产  地 巴勒斯坦 / 约旦 / 希腊 / 阿联酋
◎类  别 剧情
◎语  言 阿拉伯语 / 英语
◎上映日期 2012-09-09(多伦多电影节)
◎IMDb评分 6.6/10 (774人评价)
◎IMDb链接 https://www.imdb.com/title/tt2369543/
◎豆瓣评分 6.7/10 (97人评价)
◎豆瓣链接 https://movie.douban.com/subject/10749989/
◎片  长 93分钟
◎导  演 安娜玛丽·雅西尔 Annemarie Jacir
◎编  剧 安娜玛丽·雅西尔 Annemarie Jacir
◎演  员 萨莱·巴克里 Saleh Bakri

◎简  介
  约旦,1967年。世界巨变:对能源的争夺、新潮流、新音乐、对未来憧憬的蔓延。在约旦,不同的变化在悄然发生:巴勒斯坦成千上万的难民正跨越边境线到约旦寻求避难。11岁的Tarek与母亲在难民队伍中,而他的父亲则在战乱中被迫与家庭分开。他们和1948年就逃难至此的前一代难民一起被安置在难民营的活动帐篷中,等待可以重返家乡的那一天。难民营中的生活窘困,期待能够和爸爸重逢的Tarek想法离开难民营,并看到了希望。他对自由的向往和好奇的天性带领一群有着同样向往的人踏上了一段改变命运的旅程。

Video
ID : 1
Format : AVC
Format/Info : Advanced Video Codec
Format profile : [email protected]
Format settings : CABAC / 4 Ref Frames
Format settings, CABAC : Yes
Format settings, Reference frames : 4 frames
Codec ID : V_MPEG4/ISO/AVC
Duration : 1 h 37 min
Bit rate : 8 251 kb/s
Width : 1 920 pixels
Height : 1 040 pixels
Display aspect ratio : 1.85:1
Frame rate mode : Constant
Frame rate : 23.976 (24000/1001/189150) FPS
Color space : YUV
Chroma subsampling : 4:2:0
Bit depth : 8 bits
Scan type : Progressive
Bits/(Pixel*Frame) : 0.172
Stream size : 5.64 GiB (93%)
Language : English
Default : Yes
Forced : No
Color range : Limited
Color primaries : BT.709
Transfer characteristics : BT.709
Matrix coefficients : BT.709

Audio
ID : 2
Format : E-AC-3
Format/Info : Enhanced AC-3
Commercial name : Dolby Digital Plus
Codec ID : A_EAC3
Duration : 1 h 37 min
Bit rate mode : Constant
Bit rate : 640 kb/s
Channel(s) : 6 channels
Channel layout : L R C LFE Ls Rs
Sampling rate : 48.0 kHz
Frame rate : 31.250 FPS (1536 SPF)
Compression mode : Lossy
Stream size : 448 MiB (7%)
Language : Multiple languages
Service kind : Complete Main
Default : Yes
Forced : No





1 个附件 售价 大小 下载 时间

When.I.Saw.You.2012.ARABIC.ENSUBBED.1080p.AMZN.WEBRip.DDP5.1.x264-ETHiCS.torrent 0 金币 15.86K 231 次 2月前

#1楼
发帖时间:2022-09-29 19:22:48   |   回复数:0
游客组