BILL36
隐世仙人♂

[2024] [大陆] [剧情] [WEB-4K] 海天雄鹰[第03集][国语配音/中文字幕].Hai.Tian.Xiong.Ying.S01.2024.2160p.WEB-DL.H265.DDP2.0-Zero

-->

完整标题:海天雄鹰[第03集][国语配音/中文字幕].Hai.Tian.Xiong.Ying.S01.2024.2160p.WEB-DL.H265.DDP2.0-ZeroTV 0.55GB



◎标  题 海天雄鹰
◎年  代 2024
◎产  地 中国大陆
◎类  别 剧情
◎语  言 汉语普通话
◎IMDb链接 https://www.imdb.com/title/tt32579722/
◎豆瓣链接 https://movie.douban.com/subject/35873865/
◎导  演 刘家成 Jiacheng Liu
◎编  剧 朱秀海 Xiuhai Zhu
◎演  员 朱亚文 Yawen Zhu
      侯勇 Yong Hou
      李幼斌 Youbin Li
      杜淳 Chun Du
      王珞丹 Luodan Wang
      赵达 Da Zhao
      郭广平 Guangping Guo
      童蕾 Lei Tong
      张瑶 Yao Zhang
      凌晨 Chen Ling
      傅达 Da Fu
      李洪涛 Hongtao Li
      王放 Fang Wang
      种丹妮 Danni Chong

◎简  介
    该剧讲述了随着中国第一艘航母平台开始出海试航,中国海军成立了首支舰载机试飞大队,以谢振宇、余涛为代表的顶尖青年飞行员,在海军功勋飞行员秦大地大队长的带领下,以严谨的科学态度和时不我待的使命意识,攻克了舰载机着舰和起飞技术这一世界性难题。中国航母终于成军,谢振宇和余涛传承了老一辈的“海空雄鹰精神”,率领中国舰载机机群在辽阔海空上展翅翱翔。

部分资源为软字幕,移动端推荐播放器:MxPlayer,nPlayer,infuse ,其他播放器请自行尝试。

部分资源为软字幕,电脑端推荐播放器:PotPlayer,完美解码,KMPLAYER,其他播放器请自行尝试。

下载端推荐纯BT下载软件:qBittorrent,Bitcomet,uTorrent ,其他下载软件请自行尝试。不支持吸血迅雷。

##### MediaInfo ######
General
Unique ID : 18319532168520394018606959525299354506 (0xDC836ABACC9984DE6C31BADA1C9FB8A)
Complete name : 海天雄鹰.Hai.Tian.Xiong.Ying.S01E03.2024.2160p.WEB-DL.H265.DDP2.0-ZeroTV.mkv
Duration : 45 min 25 s
Overall bit rate : 1 736 kb/s

Video
ID : 1
Format : HEVC
Format/Info : High Efficiency Video Coding
Format profile : Main@L5@Main
Codec ID : V_MPEGH/ISO/HEVC
Duration : 45 min 25 s
Bit rate : 1 352 kb/s
Width : 3 840 pixels
Height : 1 608 pixels
Display aspect ratio : 2.40:1
Frame rate mode : Constant
Frame rate : 25.000 FPS
Color space : YUV
Chroma subsampling : 4:2:0
Bit depth : 8 bits
Bits/(Pixel*Frame) : 0.009
Stream size : 439 MiB (78%)
Writing library : Tencent-V265-1.6.9.1-p1k184g16lh64f4ra1.
Default : Yes
Forced : No
Color range : Limited
Color primaries : BT.709
Transfer characteristics : BT.709
Matrix coefficients : BT.709

Audio #1
ID : 2
Format : E-AC-3
Format/Info : Enhanced AC-3
Commercial name : Dolby Digital Plus
Codec ID : A_EAC3
Duration : 45 min 25 s
Bit rate mode : Constant
Bit rate : 256 kb/s
Channel(s) : 2 channels
Channel layout : L R
Sampling rate : 48.0 kHz
Frame rate : 31.250 FPS (1536 SPF)
Compression mode : Lossy
Delay relative to video : -42 ms
Stream size : 83.2 MiB (15%)
Title : Mandarin
Language : Chinese
Service kind : Complete Main
Default : Yes
Forced : No

Audio #2
ID : 3
Format : AAC LC
Format/Info : Advanced Audio Codec Low Complexity
Codec ID : A_AAC-2
Duration : 45 min 25 s
Bit rate : 125 kb/s
Channel(s) : 2 channels
Channel layout : L R
Sampling rate : 48.0 kHz
Frame rate : 46.875 FPS (1024 SPF)
Compression mode : Lossy
Delay relative to video : -42 ms
Stream size : 40.7 MiB (7%)
Title : Mandarin
Language : Chinese
Default : No
Forced : No


点击图片可查看大图

软字幕无法在截图上展现,HDR版本/杜比视界版本截图会出现颜色异常,请使用支持的设备播放!



1 个附件 售价 大小 下载 时间

Hai.Tian.Xiong.Ying.S01.2024.2160p.WEB-DL.H265.DDP2.0-ZeroTV[1LOU.ME].torrent 0 金币 3.87K 105 次 10天前

#1楼
发帖时间:2024-06-11 22:18:26   |   回复数:0
游客组