BILL36
隐世仙人♂

[2024] [大陆] [剧情] [WEB-1080P] 时光正好[第16-17集][国语配音/中文字幕].Time.and.Him.are.Just.Right.S01.2024.1080p.WEB-DL.H264.

-->

完整标题:时光正好[第16-17集][国语配音/中文字幕].Time.and.Him.are.Just.Right.S01.2024.1080p.WEB-DL.H264.AAC-BlackTV 1.19GB



◎标  题 时光正好
◎译  名 姐姐们的人生下半场
◎年  代 2024
◎产  地 中国大陆
◎类  别 剧情
◎语  言 汉语普通话
◎IMDb链接 https://www.imdb.com/title/tt28143609/
◎豆瓣链接 https://movie.douban.com/subject/35390203/
◎导  演 韩晓军 Xiaojun Han
◎编  剧 徐然 Ran Xu
      蒋离子 Lizi Jiang
◎演  员 秦海璐 Hailu Qin
      保剑锋 Jianfeng Bao
      左小青 Xiaoqing Zuo
      田雨 Yu Tian
      潘之琳 Zhilin Pan
      杜源 Yuan Du
      贾笑涵 Xiaohan Jia
      章涛 Tao Zhang
      孙浩 Hao Sun
      李依晓 Xiaoyi Li
      谭凯 Kai Tan
      穆丽燕 Liyan Mu

◎简  介
    《时光正好》是由韩晓军执导,秦海璐、保剑锋、左小青、田雨领衔主演的都市生活治愈剧 。该剧根据蒋离子的小说《老妈有喜》改编。

部分资源为软字幕,移动端推荐播放器:MxPlayer,nPlayer,infuse ,其他播放器请自行尝试。

部分资源为软字幕,电脑端推荐播放器:PotPlayer,完美解码,KMPLAYER,其他播放器请自行尝试。

下载端推荐纯BT下载软件:qBittorrent,Bitcomet,uTorrent ,其他下载软件请自行尝试。不支持吸血迅雷。

##### MediaInfo ######
General
Unique ID : 204807048358007584942885889427316746453 (0x9A1467190372466411304D11377528D5)
Complete name : Time.and.Him.are.Just.Right.S01E16.2024.1080p.WEB-DL.H264.AAC-BlackTV.mkv
Duration : 45 min 51 s
Overall bit rate : 1 928 kb/s

Video
ID : 1
Format : AVC
Format/Info : Advanced Video Codec
Format profile : High@L4
Format settings : CABAC / 3 Ref Frames
Format settings, CABAC : Yes
Format settings, Reference frames : 3 frames
Codec ID : V_MPEG4/ISO/AVC
Duration : 45 min 51 s
Bit rate : 1 736 kb/s
Width : 1 920 pixels
Height : 1 080 pixels
Display aspect ratio : 16:9
Frame rate mode : Constant
Frame rate : 25.000 FPS
Color space : YUV
Chroma subsampling : 4:2:0
Bit depth : 8 bits
Scan type : Progressive
Bits/(Pixel*Frame) : 0.033
Stream size : 569 MiB (90%)
Language : Chinese
Default : Yes
Forced : No
Color range : Limited
Color primaries : BT.709
Transfer characteristics : BT.709
Matrix coefficients : BT.709

Audio
ID : 2
Format : AAC LC
Format/Info : Advanced Audio Codec Low Complexity
Codec ID : A_AAC-2
Duration : 45 min 51 s
Bit rate : 192 kb/s
Channel(s) : 2 channels
Channel layout : L R
Sampling rate : 44.1 kHz
Frame rate : 43.066 FPS (1024 SPF)
Compression mode : Lossy
Delay relative to video : -80 ms
Stream size : 62.3 MiB (10%)
Title : Mandarin [AAC2.0]
Language : Chinese
Default : No
Forced : No


点击图片可查看大图

软字幕无法在截图上展现,HDR版本/杜比视界版本截图会出现颜色异常,请使用支持的设备播放!



1 个附件 售价 大小 下载 时间

Time.and.Him.are.Just.Right.S01.2024.1080p.WEB-DL.H264.AAC-BlackTV[1LOU.ME].torrent 0 金币 5.58K 140 次 10天前

#1楼
发帖时间:2024-06-11 22:17:10   |   回复数:0
游客组