BILL36
隐世仙人♂

[2024] [大陆] [剧情] [WEB-4K] 新一年又一年[第29-30集][国语配音/中文字幕].Another.Year.S01.2024.2160p.WEB-DL.H265.EDR.DDP-Black

-->

完整标题:新一年又一年[第29-30集][国语配音/中文字幕].Another.Year.S01.2024.2160p.WEB-DL.H265.EDR.DDP-BlackTV 9.03GB



◎标  题 新一年又一年
◎年  代 2024
◎产  地 中国大陆
◎类  别 剧情
◎语  言 汉语普通话
◎IMDb链接 https://www.imdb.com/title/tt11162190/
◎豆瓣链接 https://movie.douban.com/subject/30299238/
◎导  演 王为 Wei Wang
◎编  剧 聂欣 Xin Nie
◎演  员 于晓光 Xiaoguang Yu
      郎月婷 Yueting Lang
      刘莉莉 Lili Liu
      杨若兮 Ruoxi Yang
      何政军 Zhengjun He
      李东霖 Donglin Li
      刘亭作 Tingzuo Liu
      马灿灿 Cancan Ma
      沈瑶 Stephanie
      邵杰睿 Jierui Shao

◎简  介
    北京胡里住着陈家、林家、潘家,经历了改革开放四十年,他们的生活发生了翻天覆地的变化。陈家是普通人家,儿子陈焕是恢复高考后第一批大学生,后来成了著名的经济学者,女儿陈青和女婿何大海,经历了下海下岗和再就业。小女儿陈小鸥则是新时代的女性。林家是高干家庭,儿子林一达从大三线调回,带回农村媳妇群英,先是在政府机关工作,后去经商,女儿林平平则考上大学,后来出国深造。潘家的儿子亮子是待业青年,母亲潘桃昊一心指望儿子,却无奈亮子不争气。一年又一年,陈焕成就了事业,却丢了爱情。林平平实现了出国梦,却活着十分坎坷。陈青经历了下岗,再就业找回了自我;何大海生意起伏,最终也有了自己的归宿。林一达则在经商的路上迷失,离婚再娶。群英则由保姆般的小媳妇,历练成为女强人。

部分资源为软字幕,移动端推荐播放器:MxPlayer,nPlayer,infuse ,其他播放器请自行尝试。

部分资源为软字幕,电脑端推荐播放器:PotPlayer,完美解码,KMPLAYER,其他播放器请自行尝试。

下载端推荐纯BT下载软件:qBittorrent,Bitcomet,uTorrent ,其他下载软件请自行尝试。不支持吸血迅雷。

##### MediaInfo ######
General
Unique ID : 262374550960691955811369587214475755513 (0xC563801C71E6BF70C98A0FF6E4067FF9)
Complete name : Another.Year.S01E29.2024.2160p.WEB-DL.H265.EDR.DDP-BlackTV.mkv
Duration : 46 min 8 s
Overall bit rate : 14.0 Mb/s

Video
ID : 1
Format : HEVC
Format/Info : High Efficiency Video Coding
Format profile : Main@L5@Main
Codec ID : V_MPEGH/ISO/HEVC
Duration : 46 min 8 s
Bit rate : 13.7 Mb/s
Width : 3 840 pixels
Height : 2 160 pixels
Display aspect ratio : 16:9
Frame rate mode : Constant
Frame rate : 25.000 FPS
Color space : YUV
Chroma subsampling : 4:2:0
Bit depth : 8 bits
Bits/(Pixel*Frame) : 0.066
Stream size : 4.42 GiB (98%)
Language : Chinese
Default : Yes
Forced : No
Color range : Limited
VENDOR_ID : [0][0][0][0]

Audio #1
ID : 2
Format : E-AC-3
Format/Info : Enhanced AC-3
Commercial name : Dolby Digital Plus
Codec ID : A_EAC3
Duration : 46 min 8 s
Bit rate mode : Constant
Bit rate : 96.0 kb/s
Channel(s) : 2 channels
Channel layout : L R
Sampling rate : 48.0 kHz
Frame rate : 31.250 FPS (1536 SPF)
Compression mode : Lossy
Stream size : 31.7 MiB (1%)
Title : Mandarin [DDP2.0]
Language : Chinese
Service kind : Complete Main
Default : Yes
Forced : No

Audio #2
ID : 3
Format : AAC LC
Format/Info : Advanced Audio Codec Low Complexity
Codec ID : A_AAC-2
Duration : 46 min 8 s
Bit rate : 192 kb/s
Channel(s) : 2 channels
Channel layout : L R
Sampling rate : 44.1 kHz
Frame rate : 43.066 FPS (1024 SPF)
Compression mode : Lossy
Stream size : 62.6 MiB (1%)
Title : Mandarin [AAC2.0]
Language : Chinese
Default : No
Forced : No
VENDOR_ID : [0][0][0][0]


点击图片可查看大图

软字幕无法在截图上展现,HDR版本/杜比视界版本截图会出现颜色异常,请使用支持的设备播放!



1 个附件 售价 大小 下载 时间

Another.Year.S01.2024.2160p.WEB-DL.H265.EDR.DDP-BlackTV[1LOU.ME].torrent 0 金币 25.16K 98 次 10天前

#1楼
发帖时间:2024-06-11 22:16:17   |   回复数:0
游客组