BILL36
隐世仙人♂

[2024] [台湾] [剧情] [WEB-1080P] 我的婆婆怎么那么可爱2[第11-12集][国语配音/中文字幕].U.Motherbaker.S02.1080p.Linetv.WEB-DL.AAC2.0.H.2

-->

完整标题:我的婆婆怎么那么可爱2[第11-12集][国语配音/中文字幕].U.Motherbaker.S02.1080p.Linetv.WEB-DL.AAC2.0.H.264-BlackTV 5.30GB



◎标  题 我的婆婆怎么那么可爱2
◎译  名 U Motherbaker 2
◎片  名 我的婆婆怎麼那麼可愛2
◎年  代 2024
◎产  地 中国台湾
◎类  别 剧情 / 喜剧 / 家庭
◎语  言 闽南语 / 汉语普通话
◎IMDb链接 https://www.imdb.com/title/tt32307639/
◎豆瓣链接 https://movie.douban.com/subject/35441392/
◎导  演 邓安宁 Danny Deng
◎编  剧 温怡惠 Yi-Hui Wen
◎演  员 钟欣凌 Hsin-ling Chung
      黄姵嘉 Peijia Huang
      张书伟 Joe Chang
      洪都拉斯 Honduras
      邱凯伟 Darren Chiu
      刘品言 Esther Liu
      王少伟 Shao-wei Wang
      杨小黎 Candy Yang
      乔湲媛 Wan-Ru Zhan
      杨铭威 Johnny Yang
      林筳谕 Ruby Lin
      苏晏霈 Yanpei Su
      小甜甜 Riva Zhang
      于子育 Sara Yu
      蓝甯彤 Blue Lan
      许杰辉 Chieh-Hui Hsu

◎简  介
    《我的婆婆》宣布製作第2季!收視破公視紀錄,續集原班人馬回歸……

部分资源为软字幕,移动端推荐播放器:MxPlayer,nPlayer,infuse ,其他播放器请自行尝试。

部分资源为软字幕,电脑端推荐播放器:PotPlayer,完美解码,KMPLAYER,其他播放器请自行尝试。

下载端推荐纯BT下载软件:qBittorrent,Bitcomet,uTorrent ,其他下载软件请自行尝试。不支持吸血迅雷。

##### MediaInfo ######
General
Complete name : U.Motherbaker.S02E11.1080p.Linetv.WEB-DL.AAC2.0.H.264-BlackTV.mp4
Duration : 47 min 13 s
Overall bit rate mode : Variable
Overall bit rate : 7 991 kb/s

Video
ID : 1
Format : AVC
Format/Info : Advanced Video Codec
Format profile : High@L4
Format settings : CABAC / 3 Ref Frames
Format settings, CABAC : Yes
Format settings, Reference frames : 3 frames
Codec ID : avc1
Codec ID/Info : Advanced Video Coding
Duration : 47 min 13 s
Source duration : 47 min 13 s
Bit rate mode : Variable
Bit rate : 7 540 kb/s
Maximum bit rate : 9 000 kb/s
Width : 1 920 pixels
Height : 1 080 pixels
Display aspect ratio : 16:9
Frame rate mode : Constant
Frame rate : 29.970 (30000/1001) FPS
Standard : Component
Color space : YUV
Chroma subsampling : 4:2:0
Bit depth : 8 bits
Scan type : Progressive
Bits/(Pixel*Frame) : 0.121
Stream size : 2.49 GiB (94%)
Source stream size : 2.59 GiB (98%)
Color range : Limited
Color primaries : BT.709
Transfer characteristics : BT.709
Matrix coefficients : BT.709
Codec configuration box : avcC

Audio
ID : 2
Format : AAC LC
Format/Info : Advanced Audio Codec Low Complexity
Codec ID : mp4a-40-2
Duration : 47 min 13 s
Bit rate mode : Variable
Bit rate : 125 kb/s
Maximum bit rate : 129 kb/s
Channel(s) : 2 channels
Channel layout : L R
Sampling rate : 48.0 kHz
Frame rate : 46.875 FPS (1024 SPF)
Compression mode : Lossy
Stream size : 42.4 MiB (2%)
Default : Yes
Alternate group : 1


点击图片可查看大图

软字幕无法在截图上展现,HDR版本/杜比视界版本截图会出现颜色异常,请使用支持的设备播放!



1 个附件 售价 大小 下载 时间

U.Motherbaker.S02.1080p.Linetv.WEB-DL.AAC2.0.H.264-BlackTV[1LOU.ME].torrent 0 金币 15.87K 182 次 10天前

#1楼
发帖时间:2024-06-11 22:16:02   |   回复数:0
游客组