BILL36
隐世仙人♂

[2023] [台湾] [剧情] [WEB-1080P] 追分成功[第145集][国语配音/中文字幕].Define.Your.Own.Success.S01.1080p.Linetv.WEB-DL.AAC2.0.H.

-->

完整标题:追分成功[第145集][国语配音/中文字幕].Define.Your.Own.Success.S01.1080p.Linetv.WEB-DL.AAC2.0.H.264-BlackTV 5.64GB



◎标  题 追分成功
◎译  名 Define Your Own Success
◎年  代 2023
◎产  地 中国台湾
◎类  别 剧情 / 家庭
◎语  言 汉语普通话
◎IMDb链接 https://www.imdb.com/title/tt30130394/
◎豆瓣链接 https://movie.douban.com/subject/36617047/
◎导  演 王为 Wei Wang
◎编  剧 李信邦 Hsin-Bang Li
◎演  员 柯叔元 Alex Shu-Yuan Ko
      方馨 Daisy Fong
      萧景鸿 Jinghong Xiao
      米可白 Ke-Bai Mi
      陈文山 Wen-Shan Chen
      谢丽金 Li-Chin Hsieh
      林在培 Tsai Pei Lin
      陈慕义 Akio Chen
      陈琼美 Chiung-Mei Chen
      马国贤 Kuo-hsien Ma
      孙绽 Sean Sun
      吕世伟 Shih-Wei Lu
      茵芙 Demi Yin Fu
      林玉书 YutoLin
      赫容 Her Jung

◎简  介
    追分車站是海線鐵路的最末站,當海線的南下列車行駛至此,表示已抵達海線鐵路的終點。下一站,成功--山海線開始交會……,讓原本陌生的兩人開始交會,人生故事即將開始,有些人會中途下車,而有些人將一路同行到終點。   《追分成功》是一齣現代家庭倫理劇,故事就發生在你我身邊,看一 群同在一屋簷下的單身房客,北漂追求夢想,收穫愛情、友情的同時,也面臨得到與失去,從他們相互陪伴與成長的過程中,重新定義:「何謂成功?」自己的成功自己定義,堅持追分,擁抱成功。

部分资源为软字幕,移动端推荐播放器:MxPlayer,nPlayer,infuse ,其他播放器请自行尝试。

部分资源为软字幕,电脑端推荐播放器:PotPlayer,完美解码,KMPLAYER,其他播放器请自行尝试。

下载端推荐纯BT下载软件:qBittorrent,Bitcomet,uTorrent ,其他下载软件请自行尝试。不支持吸血迅雷。

##### MediaInfo ######
General
Complete name : Define.Your.Own.Success.S01E145.1080p.Linetv.WEB-DL.AAC2.0.H.264-BlackTV.mp4
Duration : 1 h 37 min
Overall bit rate mode : Variable
Overall bit rate : 8 255 kb/s

Video
ID : 1
Format : AVC
Format/Info : Advanced Video Codec
Format profile : [email protected]
Format settings : CABAC / 3 Ref Frames
Format settings, CABAC : Yes
Format settings, Reference frames : 3 frames
Codec ID : avc1
Codec ID/Info : Advanced Video Coding
Duration : 1 h 37 min
Source duration : 1 h 37 min
Bit rate mode : Variable
Bit rate : 8 111 kb/s
Maximum bit rate : 9 000 kb/s
Width : 1 920 pixels
Height : 1 080 pixels
Display aspect ratio : 16:9
Frame rate mode : Variable
Frame rate : 59.940 (60000/1001) FPS
Minimum frame rate : 59.920 FPS
Maximum frame rate : 59.960 FPS
Color space : YUV
Chroma subsampling : 4:2:0
Bit depth : 8 bits
Scan type : Progressive
Bits/(Pixel*Frame) : 0.065
Stream size : 5.54 GiB (98%)
Source stream size : 5.54 GiB (98%)
Codec configuration box : avcC

Audio
ID : 2
Format : AAC LC
Format/Info : Advanced Audio Codec Low Complexity
Codec ID : mp4a-40-2
Duration : 1 h 37 min
Bit rate mode : Variable
Bit rate : 125 kb/s
Maximum bit rate : 129 kb/s
Channel(s) : 2 channels
Channel layout : L R
Sampling rate : 48.0 kHz
Frame rate : 46.875 FPS (1024 SPF)
Compression mode : Lossy
Stream size : 87.7 MiB (2%)
Language : English
Default : Yes
Alternate group : 1


点击图片可查看大图

软字幕无法在截图上展现,HDR版本/杜比视界版本截图会出现颜色异常,请使用支持的设备播放!



1 个附件 售价 大小 下载 时间

Define.Your.Own.Success.S01.1080p.Linetv.WEB-DL.AAC2.0.H.264-BlackTV[1LOU.ME].torrent 0 金币 16.59K 70 次 10天前

#1楼
发帖时间:2024-06-11 22:14:42   |   回复数:0
游客组