BILL36
隐世仙人♂

[2024] [大陆] [剧情] [WEB-1080P] 天行健[第25-26集][国语配音/中文字幕].Heroes.S01.2024.1080p.WEB-DL.H264.AAC-ZeroTV 1.09GB

-->

完整标题:天行健[第25-26集][国语配音/中文字幕].Heroes.S01.2024.1080p.WEB-DL.H264.AAC-ZeroTV 1.09GB



◎标  题 天行健
◎译  名 浮世荟
◎年  代 2024
◎产  地 中国大陆
◎类  别 剧情 / 爱情
◎语  言 汉语普通话
◎IMDb链接 https://www.imdb.com/title/tt28116029/
◎豆瓣链接 https://movie.douban.com/subject/35656028/
◎导  演 楼健 Jian Lou
      卫立洲 Lizhou Wei
◎编  剧 白一骢 Yicong Bai
◎演  员 秦俊杰 Junjie Qin
      刘宇宁 Yuning Liu
      黄梦莹 Maggie Huang
      庞瀚辰 Hanchen Pang
      傅菁 Jing Fu
      陈天明 Tianming Chen
      陈思澈 Sichen Chen
      黄昊月 Haoyue Huang
      於薇妮 Winnie

◎简  介
    晚清末年,社会动荡,深宫之中,文渊阁里净坛密藏宝图失窃,为争夺这份几乎能改天换地的宝藏,各方势力蠢蠢欲动。而曾接的御前带刀侍卫门三刀(秦俊杰 饰),也被内务府派遣,寻回宝图,并揪出背后势力。   此时,天津大沽县内,一家客栈突发命案,从日本回来的九人无一生还,死状惨烈。因废除科举而弃笔从戎的县衙捕快王地保(庞瀚辰 饰)赶到现场,学识丰厚的他通过死者伤痕和作案手法,当场便判断出此案乃是棱西一带融天岭门人犯下,为了将凶手缉拿归案,王地保不顾县衙反对独自追凶。   另一边,融天岭掌门人卓不凡(刘宇宁 饰)刚收到手下来报——九人已杀,接头信息拿到手。原来,净坛密藏所在之处是多年来朝廷探而不得的秘密,而最近当朝祺亲王(刘佩琦 饰)得到消息,打开宝藏的秘密就掌握在谭先(宗峰岩 饰)手中。祺亲王一心推行变革,需大笔钱财周转;而卓不凡为光耀门派,传承武学,在中原设立总坛,也需金银奠基,并获得朝廷支持;故而,各怀目的的二人一拍即合,决定联手夺宝!   急于复兴门派的卓不凡根据情报立马赶往上海寻找谭先;忠于朝廷的门三刀很快也通过推理断案,将目标锁定卓不凡,去往上海追回藏宝图;尽职尽责的王地保为缉拿凶手,也奔赴千里追凶。三人各怀简单却坚定的目标踏足十里洋场,却不知道,此刻开始,他们便被迫卷入一场恢弘的历史浪潮中。

部分资源为软字幕,移动端推荐播放器:MxPlayer,nPlayer,infuse ,其他播放器请自行尝试。

部分资源为软字幕,电脑端推荐播放器:PotPlayer,完美解码,KMPLAYER,其他播放器请自行尝试。

下载端推荐纯BT下载软件:qBittorrent,Bitcomet,uTorrent ,其他下载软件请自行尝试。不支持吸血迅雷。

##### MediaInfo ######
General
Complete name : 天行健.Heroes.S01E25.2024.1080p.WEB-DL.H264.AAC-ZeroTV.mp4
Duration : 43 min 22 s
Overall bit rate mode : Variable
Overall bit rate : 1 879 kb/s

Video
ID : 1
Format : AVC
Format/Info : Advanced Video Codec
Format profile : High@L4
Format settings : CABAC / 3 Ref Frames
Format settings, CABAC : Yes
Format settings, Reference frames : 3 frames
Codec ID : avc1
Codec ID/Info : Advanced Video Coding
Duration : 43 min 21 s
Bit rate : 1 682 kb/s
Width : 1 920 pixels
Height : 800 pixels
Display aspect ratio : 2.40:1
Frame rate mode : Constant
Frame rate : 25.000 FPS
Color space : YUV
Chroma subsampling : 4:2:0
Bit depth : 8 bits
Scan type : Progressive
Bits/(Pixel*Frame) : 0.044
Stream size : 522 MiB (90%)
Color range : Limited
Color primaries : BT.709
Transfer characteristics : BT.709
Matrix coefficients : BT.709
Codec configuration box : avcC

Audio
ID : 2
Format : AAC LC
Format/Info : Advanced Audio Codec Low Complexity
Codec ID : mp4a-40-2
Duration : 43 min 22 s
Bit rate mode : Variable
Bit rate : 192 kb/s
Channel(s) : 2 channels
Channel layout : L R
Sampling rate : 44.1 kHz
Frame rate : 43.066 FPS (1024 SPF)
Compression mode : Lossy
Stream size : 58.9 MiB (10%)
Default : Yes
Alternate group : 1


点击图片可查看大图

软字幕无法在截图上展现,HDR版本/杜比视界版本截图会出现颜色异常,请使用支持的设备播放!



1 个附件 售价 大小 下载 时间

Heroes.S01.2024.1080p.WEB-DL.H264.AAC-ZeroTV[1LOU.ME].torrent 0 金币 5.29K 91 次 1月前

#1楼
发帖时间:2024-05-21 19:01:02   |   回复数:0
游客组