BILL36
隐世仙人♂

[2024] [美国] [惊悚] [WEB-4K] 面纱之下[杜比视界版本][第05集][中文字幕].The.Veil.S01.2160p.DSNP.WEB-DL.DDP.5.1.DV.H.265-BlackTV

-->

完整标题:面纱之下[杜比视界版本][第05集][中文字幕].The.Veil.S01.2160p.DSNP.WEB-DL.DDP.5.1.DV.H.265-BlackTV 4.63GB



◎标  题 面纱之下
◎译  名 致命面纱 / 谍纱 / 谍幕
◎片  名 The Veil
◎年  代 2024
◎产  地 美国
◎类  别 惊悚
◎语  言 英语
◎IMDb链接 https://www.imdb.com/title/tt21433150/
◎豆瓣链接 https://movie.douban.com/subject/36037276/
◎编  剧 斯蒂文·奈特 Steven Knight
◎演  员 伊丽莎白·莫斯 Elisabeth Moss
      尤娜·马尔万 Yumna Marwan
      达利·本萨拉赫 Dali Benssalah
      乔西·查尔斯 Josh Charles
      卡罗尔·斯蒂尔 Karol Steele
      亚力克·塞克雷亚努 Alec Secăreanu
      蒂博·德·蒙塔朗贝尔 Thibault de Montalembert
      Anil Christie
      寇布勒·霍尔德布鲁克-史密斯 Kobna Holdbrook-Smith
      詹姆斯·鲍弗 James Purefoy
      乔安娜·里贝罗 Joana Ribeiro
      Phill Langhorne
      丹·威利 Dan Wyllie
      阿隆·冯·安德里安 Aron von Andrian
      安德烈·多伦特 Andrea Dolente
      阿图尔·夏尔马 Atul Sharma
      乔治·泰勒 George Taylor
      菲利普·克里斯托弗 Philipp Christopher
      盖·罗宾斯 Guy Robbins
      贝恩·科拉科 Bern Collaço

◎简  介
    故事探索了两个女人之间出人意料又充满不快的关系,在从伊斯坦布尔到巴黎和伦敦的路上,她们进行着一场关于真相与谎言的致命游戏。一个女人拥有一个秘密,另一个女人的使命就是在数千人丧命前揭晓这个秘密。

部分资源为软字幕,移动端推荐播放器:MxPlayer,nPlayer,infuse ,其他播放器请自行尝试。

部分资源为软字幕,电脑端推荐播放器:PotPlayer,完美解码,KMPLAYER,其他播放器请自行尝试。

下载端推荐纯BT下载软件:qBittorrent,Bitcomet,uTorrent ,其他下载软件请自行尝试。不支持吸血迅雷。

##### MediaInfo ######
General
Unique ID : 165257974449391237292742595516396665083 (0x7C5387351B300A410A9B852765CEF8FB)
Complete name : The.Veil.S01E05.Grandfathers.House.2160p.DSNP.WEB-DL.DDP.5.1.DV.H.265-BlackTV.mkv
Duration : 40 min 29 s
Overall bit rate : 16.4 Mb/s

Video
ID : 1
Format : HEVC
Format/Info : High Efficiency Video Coding
Format profile : Main 10@L5@High
HDR format : Dolby Vision, Version 1.0, dvhe.05.06, BL+RPU
Codec ID : V_MPEGH/ISO/HEVC
Duration : 40 min 29 s
Bit rate : 16.1 Mb/s
Width : 3 840 pixels
Height : 2 160 pixels
Display aspect ratio : 16:9
Frame rate mode : Constant
Frame rate : 23.976 (24000/1001) FPS
Color space : YUV
Chroma subsampling : 4:2:0
Bit depth : 10 bits
Bits/(Pixel*Frame) : 0.081
Stream size : 4.56 GiB (98%)
Language : English
Default : Yes
Forced : No
Color range : Full

Audio
ID : 2
Format : E-AC-3
Format/Info : Enhanced AC-3
Commercial name : Dolby Digital Plus
Codec ID : A_EAC3
Duration : 40 min 29 s
Bit rate mode : Constant
Bit rate : 256 kb/s
Channel(s) : 6 channels
Channel layout : L R C LFE Ls Rs
Sampling rate : 48.0 kHz
Frame rate : 31.250 FPS (1536 SPF)
Compression mode : Lossy
Stream size : 74.2 MiB (2%)
Language : English
Service kind : Complete Main
Default : Yes
Forced : No

Text #1
ID : 3
Format : UTF-8
Codec ID : S_TEXT/UTF8
Codec ID/Info : UTF-8 Plain Text
Duration : 30 min 3 s
Bit rate : 5 b/s
Frame rate : 0.022 FPS
Count of elements : 40
Stream size : 1.27 KiB (0%)
Title : Forced
Language : English
Default : Yes
Forced : Yes

Text #2
ID : 4
Format : UTF-8
Codec ID : S_TEXT/UTF8
Codec ID/Info : UTF-8 Plain Text
Duration : 40 min 6 s
Bit rate : 66 b/s
Frame rate : 0.227 FPS
Count of elements : 545
Stream size : 19.5 KiB (0%)
Title : SDH
Language : English
Default : No
Forced : No

Text #3
ID : 5
Format : UTF-8
Codec ID : S_TEXT/UTF8
Codec ID/Info : UTF-8 Plain Text
Duration : 40 min 2 s
Bit rate : 52 b/s
Frame rate : 0.191 FPS
Count of elements : 458
Stream size : 15.4 KiB (0%)
Title : Traditional
Language : Chinese
Default : No
Forced : No

Text #4
ID : 6
Format : UTF-8
Codec ID : S_TEXT/UTF8
Codec ID/Info : UTF-8 Plain Text
Duration : 40 min 2 s
Bit rate : 50 b/s
Frame rate : 0.175 FPS
Count of elements : 420
Stream size : 14.9 KiB (0%)
Language : Czech
Default : No
Forced : No

Text #5
ID : 7
Format : UTF-8
Codec ID : S_TEXT/UTF8
Codec ID/Info : UTF-8 Plain Text
Duration : 40 min 2 s
Bit rate : 52 b/s
Frame rate : 0.159 FPS
Count of elements : 382
Stream size : 15.3 KiB (0%)
Language : Danish
Default : No
Forced : No

Text #6
ID : 8
Format : UTF-8
Codec ID : S_TEXT/UTF8
Codec ID/Info : UTF-8 Plain Text
Duration : 40 min 2 s
Bit rate : 56 b/s
Frame rate : 0.177 FPS
Count of elements : 425
Stream size : 16.5 KiB (0%)
Language : German
Default : No
Forced : No

Text #7
ID : 9
Format : UTF-8
Codec ID : S_TEXT/UTF8
Codec ID/Info : UTF-8 Plain Text
Duration : 40 min 2 s
Bit rate : 87 b/s
Frame rate : 0.181 FPS
Count of elements : 436
Stream size : 25.7 KiB (0%)
Language : Greek
Default : No
Forced : No

Text #8
ID : 10
Format : UTF-8
Codec ID : S_TEXT/UTF8
Codec ID/Info : UTF-8 Plain Text
Duration : 40 min 2 s
Bit rate : 50 b/s
Frame rate : 0.171 FPS
Count of elements : 410
Stream size : 14.9 KiB (0%)
Title : Latin America
Language : Spanish
Default : No
Forced : No

Text #9
ID : 11
Format : UTF-8
Codec ID : S_TEXT/UTF8
Codec ID/Info : UTF-8 Plain Text
Duration : 40 min 2 s
Bit rate : 51 b/s
Frame rate : 0.180 FPS
Count of elements : 433
Stream size : 15.1 KiB (0%)
Language : Spanish
Default : No
Forced : No

Text #10
ID : 12
Format : UTF-8
Codec ID : S_TEXT/UTF8
Codec ID/Info : UTF-8 Plain Text
Duration : 40 min 2 s
Bit rate : 54 b/s
Frame rate : 0.163 FPS
Count of elements : 391
Stream size : 16.0 KiB (0%)
Language : Finnish
Default : No
Forced : No

Text #11
ID : 13
Format : UTF-8
Codec ID : S_TEXT/UTF8
Codec ID/Info : UTF-8 Plain Text
Duration : 40 min 2 s
Bit rate : 50 b/s
Frame rate : 0.166 FPS
Count of elements : 399
Stream size : 14.9 KiB (0%)
Language : French
Default : No
Forced : No

Text #12
ID : 14
Format : UTF-8
Codec ID : S_TEXT/UTF8
Codec ID/Info : UTF-8 Plain Text
Duration : 40 min 2 s
Bit rate : 51 b/s
Frame rate : 0.177 FPS
Count of elements : 425
Stream size : 15.0 KiB (0%)
Language : Hungarian
Default : No
Forced : No

Text #13
ID : 15
Format : UTF-8
Codec ID : S_TEXT/UTF8
Codec ID/Info : UTF-8 Plain Text
Duration : 40 min 2 s
Bit rate : 52 b/s
Frame rate : 0.184 FPS
Count of elements : 443
Stream size : 15.5 KiB (0%)
Language : Italian
Default : No
Forced : No

Text #14
ID : 16
Format : UTF-8
Codec ID : S_TEXT/UTF8
Codec ID/Info : UTF-8 Plain Text
Duration : 40 min 2 s
Bit rate : 45 b/s
Frame rate : 0.174 FPS
Count of elements : 419
Stream size : 13.4 KiB (0%)
Language : Japanese
Default : No
Forced : No

Text #15
ID : 17
Format : UTF-8
Codec ID : S_TEXT/UTF8
Codec ID/Info : UTF-8 Plain Text
Duration : 40 min 2 s
Bit rate : 60 b/s
Frame rate : 0.191 FPS
Count of elements : 459
Stream size : 17.7 KiB (0%)
Language : Korean
Default : No
Forced : No

Text #16
ID : 18
Format : UTF-8
Codec ID : S_TEXT/UTF8
Codec ID/Info : UTF-8 Plain Text
Duration : 40 min 2 s
Bit rate : 48 b/s
Frame rate : 0.155 FPS
Count of elements : 373
Stream size : 14.4 KiB (0%)
Language : Dutch
Default : No
Forced : No

Text #17
ID : 19
Format : UTF-8
Codec ID : S_TEXT/UTF8
Codec ID/Info : UTF-8 Plain Text
Duration : 40 min 2 s
Bit rate : 50 b/s
Frame rate : 0.166 FPS
Count of elements : 400
Stream size : 14.8 KiB (0%)
Language : Norwegian
Default : No
Forced : No

Text #18
ID : 20
Format : UTF-8
Codec ID : S_TEXT/UTF8
Codec ID/Info : UTF-8 Plain Text
Duration : 40 min 2 s
Bit rate : 48 b/s
Frame rate : 0.184 FPS
Count of elements : 443
Stream size : 14.3 KiB (0%)
Language : Polish
Default : No
Forced : No

Text #19
ID : 21
Format : UTF-8
Codec ID : S_TEXT/UTF8
Codec ID/Info : UTF-8 Plain Text
Duration : 40 min 2 s
Bit rate : 51 b/s
Frame rate : 0.181 FPS
Count of elements : 436
Stream size : 15.0 KiB (0%)
Title : Brazil
Language : Portuguese
Default : No
Forced : No

Text #20
ID : 22
Format : UTF-8
Codec ID : S_TEXT/UTF8
Codec ID/Info : UTF-8 Plain Text
Duration : 40 min 2 s
Bit rate : 54 b/s
Frame rate : 0.185 FPS
Count of elements : 445
Stream size : 16.1 KiB (0%)
Language : Portuguese
Default : No
Forced : No

Text #21
ID : 23
Format : UTF-8
Codec ID : S_TEXT/UTF8
Codec ID/Info : UTF-8 Plain Text
Duration : 40 min 2 s
Bit rate : 50 b/s
Frame rate : 0.152 FPS
Count of elements : 364
Stream size : 14.9 KiB (0%)
Language : Romanian
Default : No
Forced : No

Text #22
ID : 24
Format : UTF-8
Codec ID : S_TEXT/UTF8
Codec ID/Info : UTF-8 Plain Text
Duration : 40 min 2 s
Bit rate : 50 b/s
Frame rate : 0.184 FPS
Count of elements : 442
Stream size : 14.7 KiB (0%)
Language : Slovak
Default : No
Forced : No

Text #23
ID : 25
Format : UTF-8
Codec ID : S_TEXT/UTF8
Codec ID/Info : UTF-8 Plain Text
Duration : 40 min 2 s
Bit rate : 51 b/s
Frame rate : 0.157 FPS
Count of elements : 378
Stream size : 15.2 KiB (0%)
Language : Swedish
Default : No
Forced : No

Text #24
ID : 26
Format : UTF-8
Codec ID : S_TEXT/UTF8
Codec ID/Info : UTF-8 Plain Text
Duration : 40 min 2 s
Bit rate : 55 b/s
Frame rate : 0.185 FPS
Count of elements : 445
Stream size : 16.3 KiB (0%)
Language : Turkish
Default : No
Forced : No

Menu
00:00:15.724 : en:Recap
00:01:34.261 : en:Scene 1
00:04:06.663 : en:Intro
00:04:16.632 : en:Scene 2
00:10:18.410 : en:Scene 3
00:18:26.773 : en:Scene 4
00:31:44.321 : en:Scene 5
00:39:13.020 : en:Credits


点击图片可查看大图

软字幕无法在截图上展现,HDR版本/杜比视界版本截图会出现颜色异常,请使用支持的设备播放!



1 个附件 售价 大小 下载 时间

The.Veil.S01.2160p.DSNP.WEB-DL.DDP.5.1.DV.H.265-BlackTV[1LOU.ME].torrent 0 金币 14.08K 119 次 1月前

#1楼
发帖时间:2024-05-21 18:59:37   |   回复数:0
游客组