BILL36
隐世仙人♂

[2024] [大陆] [真人秀] [WEB-4K] 好友好有爱 第2季[第20集][国语配音/中文字幕].Hao.You.Hao.You.Ai.S02.2023.2160p.WEB-DL.H265.AAC-Lel

-->

完整标题:好友好有爱 第2季[第20集][国语配音/中文字幕].Hao.You.Hao.You.Ai.S02.2023.2160p.WEB-DL.H265.AAC-LelveTV 0.54GB



◎标  题 好友好有爱 第2季
◎年  代 2024
◎产  地 中国大陆
◎类  别 真人秀
◎语  言 汉语普通话
◎IMDb链接 https://www.imdb.com/title//
◎豆瓣链接 https://movie.douban.com/subject/36838406/

部分资源为软字幕,移动端推荐播放器:MxPlayer,nPlayer,infuse ,其他播放器请自行尝试。

部分资源为软字幕,电脑端推荐播放器:PotPlayer,完美解码,KMPLAYER,其他播放器请自行尝试。

下载端推荐纯BT下载软件:qBittorrent,Bitcomet,uTorrent ,其他下载软件请自行尝试。不支持吸血迅雷。

##### MediaInfo ######
General
Complete name : Hao.You.Hao.You.Ai.S02E20.2023.2160p.WEB-DL.H265.AAC-LelveTV.mp4
Duration : 38 min 28 s
Overall bit rate mode : Variable
Overall bit rate : 1 999 kb/s

Video
ID : 1
Format : HEVC
Format/Info : High Efficiency Video Coding
Format profile : Main@L5@Main
Codec ID : hev1
Codec ID/Info : High Efficiency Video Coding
Duration : 38 min 28 s
Source duration : 38 min 28 s
Bit rate : 1 870 kb/s
Width : 3 840 pixels
Height : 2 160 pixels
Display aspect ratio : 16:9
Frame rate mode : Variable
Frame rate : 25.000 FPS
Minimum frame rate : 24.993 FPS
Maximum frame rate : 25.007 FPS
Color space : YUV
Chroma subsampling : 4:2:0
Bit depth : 8 bits
Bits/(Pixel*Frame) : 0.009
Stream size : 515 MiB (94%)
Source stream size : 515 MiB (94%)
Writing library : Tencent-V265-1.6.9.1-p1k184g16lh64f4ra1.
Color range : Limited
Color primaries : BT.709
Transfer characteristics : BT.709
Matrix coefficients : BT.709
Codec configuration box : hvcC

Audio
ID : 2
Format : AAC LC
Format/Info : Advanced Audio Codec Low Complexity
Codec ID : mp4a-40-2
Duration : 38 min 28 s
Bit rate mode : Variable
Bit rate : 122 kb/s
Maximum bit rate : 126 kb/s
Channel(s) : 2 channels
Channel layout : L R
Sampling rate : 48.0 kHz
Frame rate : 46.875 FPS (1024 SPF)
Compression mode : Lossy
Stream size : 33.7 MiB (6%)
Default : Yes
Alternate group : 1


点击图片可查看大图

软字幕无法在截图上展现,HDR版本/杜比视界版本截图会出现颜色异常,请使用支持的设备播放!



1 个附件 售价 大小 下载 时间

Hao.You.Hao.You.Ai.S02.2023.2160p.WEB-DL.H265.AAC-LelveTV[1LOU.ME].torrent 0 金币 3.83K 98 次 1月前

#1楼
发帖时间:2024-05-21 16:39:05   |   回复数:0
游客组