BILL36
隐世仙人♂

[2024] [大陆] [爱情] [WEB-1080P] 势均力敌的我们[第03集][国语配音/中文字幕].Shi.Jun.Li.Di.De.Wo.Men.S01.2024.1080p.WEB-DL.H264.AAC-

-->

完整标题:势均力敌的我们[第03集][国语配音/中文字幕].Shi.Jun.Li.Di.De.Wo.Men.S01.2024.1080p.WEB-DL.H264.AAC-LelveTV 0.78GB



◎标  题 势均力敌的我们
◎年  代 2024
◎产  地 中国大陆
◎类  别 爱情 / 真人秀
◎语  言 汉语普通话
◎IMDb链接 https://www.imdb.com/title//
◎豆瓣链接 https://movie.douban.com/subject/36894157/
◎导  演 池源 Yuan Chi
      周楚囡 Chunan Zhou
◎编  剧 徐如馨
◎演  员 孟子义 Ziyi Meng
      徐志胜 Zhisheng Xu

◎简  介
    高颜值帅哥美女荒岛追爱!二十名单身男女在与世隔绝的荒野上展开一场十天十夜的寻爱之旅。在极限的生存压力和刺激下,他们将展露最真实的情感态度,面对爱情的选择与生存的挑战。在不断的淘汰危机和配对选择中,他们能否找到势均力敌的另一半?

部分资源为软字幕,移动端推荐播放器:MxPlayer,nPlayer,infuse ,其他播放器请自行尝试。

部分资源为软字幕,电脑端推荐播放器:PotPlayer,完美解码,KMPLAYER,其他播放器请自行尝试。

下载端推荐纯BT下载软件:qBittorrent,Bitcomet,uTorrent ,其他下载软件请自行尝试。不支持吸血迅雷。

##### MediaInfo ######
General
Complete name : Shi.Jun.Li.Di.De.Wo.Men.S01E03.2024.1080p.WEB-DL.H264.AAC-LelveTV.mp4
Duration : 1 h 0 min
Overall bit rate mode : Variable
Overall bit rate : 1 851 kb/s

Video
ID : 1
Format : AVC
Format/Info : Advanced Video Codec
Format profile : High@L4
Format settings : CABAC / 4 Ref Frames
Format settings, CABAC : Yes
Format settings, Reference frames : 4 frames
Codec ID : avc1
Codec ID/Info : Advanced Video Coding
Duration : 1 h 0 min
Source duration : 1 h 0 min
Bit rate : 1 752 kb/s
Width : 1 920 pixels
Height : 1 080 pixels
Display aspect ratio : 16:9
Frame rate mode : Variable
Frame rate : 25.000 FPS
Minimum frame rate : 24.993 FPS
Maximum frame rate : 25.007 FPS
Color space : YUV
Chroma subsampling : 4:2:0
Bit depth : 8 bits
Scan type : Progressive
Bits/(Pixel*Frame) : 0.034
Stream size : 757 MiB (95%)
Source stream size : 757 MiB (95%)
Color range : Limited
Color primaries : BT.709
Transfer characteristics : BT.709
Matrix coefficients : BT.709
Codec configuration box : avcC

Audio
ID : 2
Format : AAC LC
Format/Info : Advanced Audio Codec Low Complexity
Codec ID : mp4a-40-2
Duration : 1 h 0 min
Bit rate mode : Variable
Bit rate : 93.4 kb/s
Maximum bit rate : 97.0 kb/s
Channel(s) : 2 channels
Channel layout : L R
Sampling rate : 48.0 kHz
Frame rate : 46.875 FPS (1024 SPF)
Compression mode : Lossy
Stream size : 40.4 MiB (5%)
Default : Yes
Alternate group : 1


点击图片可查看大图

软字幕无法在截图上展现,HDR版本/杜比视界版本截图会出现颜色异常,请使用支持的设备播放!



1 个附件 售价 大小 下载 时间

Shi.Jun.Li.Di.De.Wo.Men.S01.2024.1080p.WEB-DL.H264.AAC-LelveTV[1LOU.ME].torrent 0 金币 4.47K 105 次 1月前

#1楼
发帖时间:2024-05-21 16:38:23   |   回复数:0
游客组