BILL36
隐世仙人♂

[2024] [大陆] [WEB-1080P] 爆梗脱口秀[第52集][国语配音/中文字幕].Bao.Geng.Tuo.Kou.Xiu.S01.2024.1080p.WEB-DL.H264.AAC-Lelve

-->

完整标题:爆梗脱口秀[第52集][国语配音/中文字幕].Bao.Geng.Tuo.Kou.Xiu.S01.2024.1080p.WEB-DL.H264.AAC-LelveTV 0.18GB



◎标  题 爆梗脱口秀
◎年  代 2024
◎产  地 中国大陆
◎语  言 汉语普通话
◎IMDb链接 https://www.imdb.com/title//
◎豆瓣链接 https://movie.douban.com/subject/36822693/
◎演  员 李雪琴 Xueqin Li
      王勉 Mian Wang
      徐志胜 Zhisheng Xu
      何广智 Guangzhi He
      庞博 Bo Pang
      鸟鸟

◎简  介
    爆梗脱口秀,金句天天有~

部分资源为软字幕,移动端推荐播放器:MxPlayer,nPlayer,infuse ,其他播放器请自行尝试。

部分资源为软字幕,电脑端推荐播放器:PotPlayer,完美解码,KMPLAYER,其他播放器请自行尝试。

下载端推荐纯BT下载软件:qBittorrent,Bitcomet,uTorrent ,其他下载软件请自行尝试。不支持吸血迅雷。

##### MediaInfo ######
General
Complete name : Bao.Geng.Tuo.Kou.Xiu.S01E52.2024.1080p.WEB-DL.H264.AAC-LelveTV.mp4
Duration : 17 min 16 s
Overall bit rate mode : Variable
Overall bit rate : 1 501 kb/s

Video
ID : 1
Format : AVC
Format/Info : Advanced Video Codec
Format profile : High@L4
Format settings : CABAC / 4 Ref Frames
Format settings, CABAC : Yes
Format settings, Reference frames : 4 frames
Codec ID : avc1
Codec ID/Info : Advanced Video Coding
Duration : 17 min 16 s
Source duration : 17 min 16 s
Bit rate : 1 401 kb/s
Width : 1 920 pixels
Height : 1 080 pixels
Display aspect ratio : 16:9
Frame rate mode : Variable
Frame rate : 25.000 FPS
Minimum frame rate : 24.993 FPS
Maximum frame rate : 25.007 FPS
Color space : YUV
Chroma subsampling : 4:2:0
Bit depth : 8 bits
Scan type : Progressive
Bits/(Pixel*Frame) : 0.027
Stream size : 173 MiB (93%)
Source stream size : 173 MiB (93%)
Codec configuration box : avcC

Audio
ID : 2
Format : AAC LC
Format/Info : Advanced Audio Codec Low Complexity
Codec ID : mp4a-40-2
Duration : 17 min 16 s
Bit rate mode : Variable
Bit rate : 93.4 kb/s
Maximum bit rate : 97.1 kb/s
Channel(s) : 2 channels
Channel layout : L R
Sampling rate : 48.0 kHz
Frame rate : 46.875 FPS (1024 SPF)
Compression mode : Lossy
Stream size : 11.5 MiB (6%)
Default : Yes
Alternate group : 1


点击图片可查看大图

软字幕无法在截图上展现,HDR版本/杜比视界版本截图会出现颜色异常,请使用支持的设备播放!



1 个附件 售价 大小 下载 时间

Bao.Geng.Tuo.Kou.Xiu.S01.2024.1080p.WEB-DL.H264.AAC-LelveTV[1LOU.ME].torrent 0 金币 2.95K 175 次 1月前

#1楼
发帖时间:2024-05-21 14:07:36   |   回复数:0
游客组