BILL36
隐世仙人♂

[2024] [日本] [剧情] [WEB-1080P] 良禽不择木[第07集][简繁英字幕].Karasu.wa.Aruji.wo.Erabanai.S01.2024.1080p.CR.WEB-DL.x264.AAC

-->

完整标题:良禽不择木[第07集][简繁英字幕].Karasu.wa.Aruji.wo.Erabanai.S01.2024.1080p.CR.WEB-DL.x264.AAC-ZeroTV 1.42GB



◎标  题 良禽不择木
◎译  名 乌鸦姬不选择主人 / Karasu wa Aruji wo Erabanai
◎片  名 烏は主を選ばない
◎年  代 2024
◎产  地 日本
◎类  别 剧情 / 动画 / 古装
◎语  言 日语
◎IMDb链接 https://www.imdb.com/title//
◎豆瓣链接 https://movie.douban.com/subject/36615007/
◎导  演 京极义昭 Kyougoku Yoshiaki
◎编  剧 山室有纪子 Yukiko Yamamuro
◎演  员 田村睦心 Mutsumi Tamura
      入野自由 Miyu Irino
      本泉莉奈 Rina Honnizumi
      七海弘希 Hiroki Nanami
      福原绫香 Ayaka Fukuhara
      钉宫理惠 Rie Kugimiya
      竹内荣治 Eiji Takeuchi
      日野聪 Satoshi Hino
      白熊宽嗣 Hiroshi Shirokuma
      河西健吾 Kengo Kawanishi
      青山吉能 Aoyama Yoshino
      田中敦子 Atsuko Tanaka

部分资源为软字幕,移动端推荐播放器:MxPlayer,nPlayer,infuse ,其他播放器请自行尝试。

部分资源为软字幕,电脑端推荐播放器:PotPlayer,完美解码,KMPLAYER,其他播放器请自行尝试。

下载端推荐纯BT下载软件:qBittorrent,Bitcomet,uTorrent ,其他下载软件请自行尝试。不支持吸血迅雷。

##### MediaInfo ######
General
Unique ID : 106384908895418352061115299419828415216 (0x5008FCF8878E31FCAD2350821A826AF0)
Complete name : Karasu.wa.Aruji.wo.Erabanai.S01E07.2024.1080p.CR.WEB-DL.x264.AAC-ZeroTV.mkv
Duration : 25 min 0 s
Overall bit rate : 8 116 kb/s

Video
ID : 1
Format : AVC
Format/Info : Advanced Video Codec
Format profile : High@L4
Format settings : CABAC / 4 Ref Frames
Format settings, CABAC : Yes
Format settings, Reference frames : 4 frames
Codec ID : V_MPEG4/ISO/AVC
Duration : 25 min 0 s
Bit rate : 8 000 kb/s
Width : 1 920 pixels
Height : 1 080 pixels
Display aspect ratio : 16:9
Frame rate mode : Constant
Frame rate : 23.976 (24000/1001) FPS
Color space : YUV
Chroma subsampling : 4:2:0
Bit depth : 8 bits
Scan type : Progressive
Bits/(Pixel*Frame) : 0.161
Stream size : 1.39 GiB (98%)
Title : Japanese
Writing library : x264 core 164
Encoding settings : cabac=1 / ref=4 / deblock=1:1:1 / analyse=0x3:0x113 / me=hex / subme=8 / psy=1 / psy_rd=0.40:0.00 / mixed_ref=1 / me_range=16 / chroma_me=1 / trellis=2 / 8x8dct=1 / cqm=0 / deadzone=21,11 / fast_pskip=1 / chroma_qp_offset=-2 / threads=12 / lookahead_threads=2 / sliced_threads=0 / nr=0 / decimate=1 / interlaced=0 / bluray_compat=0 / constrained_intra=0 / bframes=0 / weightp=2 / keyint=96 / keyint_min=48 / scenecut=40 / intra_refresh=0 / rc_lookahead=48 / rc=2pass / mbtree=1 / bitrate=8000 / ratetol=1.0 / qcomp=0.60 / qpmin=0 / qpmax=69 / qpstep=4 / cplxblur=20.0 / qblur=0.5 / vbv_maxrate=12000 / vbv_bufsize=18000 / nal_hrd=none / filler=0 / ip_ratio=1.40 / aq=1:0.60
Language : Japanese
Default : Yes
Forced : No
Color range : Limited
Color primaries : BT.709
Transfer characteristics : BT.709
Matrix coefficients : BT.709

Audio
ID : 2
Format : AAC LC
Format/Info : Advanced Audio Codec Low Complexity
Codec ID : A_AAC-2
Duration : 25 min 0 s
Bit rate : 128 kb/s
Channel(s) : 2 channels
Channel layout : L R
Sampling rate : 44.1 kHz
Frame rate : 43.066 FPS (1024 SPF)
Compression mode : Lossy
Stream size : 22.9 MiB (2%)
Title : Japanese
Language : Japanese
Default : Yes
Forced : No

Text #1
ID : 3
Format : ASS
Codec ID : S_TEXT/ASS
Codec ID/Info : Advanced Sub Station Alpha
Duration : 24 min 58 s
Bit rate : 290 b/s
Frame rate : 0.476 FPS
Count of elements : 714
Compression mode : Lossless
Stream size : 53.2 KiB (0%)
Title : Chinese Simplified
Language : Chinese
Default : Yes
Forced : No

Text #2
ID : 4
Format : ASS
Codec ID : S_TEXT/ASS
Codec ID/Info : Advanced Sub Station Alpha
Duration : 24 min 58 s
Bit rate : 290 b/s
Frame rate : 0.476 FPS
Count of elements : 714
Compression mode : Lossless
Stream size : 53.2 KiB (0%)
Title : Chinese Traditional
Language : Chinese
Default : No
Forced : No

Text #3
ID : 5
Format : ASS
Codec ID : S_TEXT/ASS
Codec ID/Info : Advanced Sub Station Alpha
Duration : 24 min 56 s
Bit rate : 134 b/s
Frame rate : 0.209 FPS
Count of elements : 313
Compression mode : Lossless
Stream size : 24.5 KiB (0%)
Language : English
Default : No
Forced : No

Text #4
ID : 6
Format : ASS
Codec ID : S_TEXT/ASS
Codec ID/Info : Advanced Sub Station Alpha
Duration : 24 min 56 s
Bit rate : 151 b/s
Frame rate : 0.227 FPS
Count of elements : 340
Compression mode : Lossless
Stream size : 27.7 KiB (0%)
Language : German
Default : No
Forced : No

Text #5
ID : 7
Format : ASS
Codec ID : S_TEXT/ASS
Codec ID/Info : Advanced Sub Station Alpha
Duration : 24 min 56 s
Bit rate : 138 b/s
Frame rate : 0.210 FPS
Count of elements : 315
Compression mode : Lossless
Stream size : 25.4 KiB (0%)
Language : Spanish
Default : No
Forced : No

Text #6
ID : 8
Format : ASS
Codec ID : S_TEXT/ASS
Codec ID/Info : Advanced Sub Station Alpha
Duration : 24 min 56 s
Bit rate : 148 b/s
Frame rate : 0.220 FPS
Count of elements : 330
Compression mode : Lossless
Stream size : 27.1 KiB (0%)
Language : Spanish
Default : No
Forced : No

Text #7
ID : 9
Format : ASS
Codec ID : S_TEXT/ASS
Codec ID/Info : Advanced Sub Station Alpha
Duration : 24 min 56 s
Bit rate : 153 b/s
Frame rate : 0.232 FPS
Count of elements : 347
Compression mode : Lossless
Stream size : 28.1 KiB (0%)
Language : French
Default : No
Forced : No

Text #8
ID : 10
Format : ASS
Codec ID : S_TEXT/ASS
Codec ID/Info : Advanced Sub Station Alpha
Duration : 24 min 56 s
Bit rate : 156 b/s
Frame rate : 0.231 FPS
Count of elements : 346
Compression mode : Lossless
Stream size : 28.5 KiB (0%)
Language : Italian
Default : No
Forced : No

Text #9
ID : 11
Format : ASS
Codec ID : S_TEXT/ASS
Codec ID/Info : Advanced Sub Station Alpha
Duration : 24 min 56 s
Bit rate : 140 b/s
Frame rate : 0.212 FPS
Count of elements : 317
Compression mode : Lossless
Stream size : 25.7 KiB (0%)
Language : Portuguese
Default : No
Forced : No

Text #10
ID : 12
Format : ASS
Codec ID : S_TEXT/ASS
Codec ID/Info : Advanced Sub Station Alpha
Duration : 24 min 51 s
Bit rate : 175 b/s
Frame rate : 0.210 FPS
Count of elements : 314
Compression mode : Lossless
Stream size : 31.9 KiB (0%)
Language : Russian
Default : No
Forced : No

Text #11
ID : 13
Format : ASS
Codec ID : S_TEXT/ASS
Codec ID/Info : Advanced Sub Station Alpha
Duration : 24 min 56 s
Bit rate : 149 b/s
Frame rate : 0.202 FPS
Count of elements : 302
Compression mode : Lossless
Stream size : 27.3 KiB (0%)
Language : Arabic
Default : No
Forced : No


点击图片可查看大图

软字幕无法在截图上展现,HDR版本/杜比视界版本截图会出现颜色异常,请使用支持的设备播放!



1 个附件 售价 大小 下载 时间

Karasu.wa.Aruji.wo.Erabanai.S01.2024.1080p.CR.WEB-DL.x264.AAC-ZeroTV[1LOU.ME].torrent 0 金币 6.05K 126 次 1月前

#1楼
发帖时间:2024-05-21 14:05:59   |   回复数:0
游客组