BILL36
隐世仙人♂

[2024] [大陆] [真人秀] [WEB-4K] 花儿与少年·好友记[第07集][国语配音/中文字幕].Divas.Hit.The.Road.S06.2014.2160p.WEB-DL.H265.AAC-Lel

-->

完整标题:花儿与少年·好友记[第07集][国语配音/中文字幕].Divas.Hit.The.Road.S06.2014.2160p.WEB-DL.H265.AAC-LelveTV 5.75GB



◎标  题 花儿与少年·好友记
◎译  名 花儿与少年 第六季 / 花儿与少年6 / 花儿与少年·好友季
◎年  代 2024
◎产  地 中国大陆
◎类  别 真人秀
◎语  言 汉语普通话
◎IMDb链接 https://www.imdb.com/title//
◎豆瓣链接 https://movie.douban.com/subject/36516558/
◎演  员 秦海璐 Hailu Qin
      秦岚 Lan Qin
      辛芷蕾 Zhilei Xin
      赵昭仪 Zhaoyi Zhao
      胡先煦 Xianxu Hu
      王安宇 Anyu Wang
      张凯丽 Kaili Zhang
      刘涛 Tamia Liu
      张翰 Han Zhang

◎简  介
    去看中国的世界朋友圈,抛开所有光环和压力,抽离出自己熟悉的环境,走进与我们有千丝万缕联系的异国他乡。在丝绸之路的人间烟火中探索大交流时代的痕迹,去发现全新的自己。三站行程路线,老挝,沙特阿拉伯,冰岛。回归代际,七位常驻,五女加二男原始配方惊喜延续,不同时代,不同观念,不同兴趣,不同习惯,你要嘉宾。霸气大姐,迷糊二姐,随性三姐,率真四姐,鬼马小妹,傲娇大哥,个性弟弟。

部分资源为软字幕,移动端推荐播放器:MxPlayer,nPlayer,infuse ,其他播放器请自行尝试。

部分资源为软字幕,电脑端推荐播放器:PotPlayer,完美解码,KMPLAYER,其他播放器请自行尝试。

下载端推荐纯BT下载软件:qBittorrent,Bitcomet,uTorrent ,其他下载软件请自行尝试。不支持吸血迅雷。

##### MediaInfo ######
General
Complete name : Divas.Hit.The.Road.S06E07.2014.2160p.WEB-DL.H265.AAC-LelveTV.mp4
Duration : 1 h 41 min
Overall bit rate : 8 131 kb/s

Video
ID : 1
Format : HEVC
Format/Info : High Efficiency Video Coding
Format profile : Main@L5@Main
Codec ID : hev1
Codec ID/Info : High Efficiency Video Coding
Duration : 1 h 41 min
Bit rate : 7 932 kb/s
Width : 3 840 pixels
Height : 2 160 pixels
Display aspect ratio : 16:9
Frame rate mode : Variable
Frame rate : 25.000 FPS
Minimum frame rate : 25.000 FPS
Maximum frame rate : 12 800.000 FPS
Color space : YUV
Chroma subsampling : 4:2:0
Bit depth : 8 bits
Bits/(Pixel*Frame) : 0.038
Stream size : 5.61 GiB (98%)
Writing library : 200910.mgtv.com
Color range : Limited
Color primaries : BT.709
Transfer characteristics : BT.709
Matrix coefficients : BT.709
Codec configuration box : hvcC

Audio
ID : 2
Format : AAC LC
Format/Info : Advanced Audio Codec Low Complexity
Codec ID : mp4a-40-2
Duration : 1 h 41 min
Bit rate mode : Constant
Bit rate : 192 kb/s
Channel(s) : 2 channels
Channel layout : L R
Sampling rate : 44.1 kHz
Frame rate : 43.066 FPS (1024 SPF)
Compression mode : Lossy
Stream size : 137 MiB (2%)
Default : Yes
Alternate group : 1


点击图片可查看大图

软字幕无法在截图上展现,HDR版本/杜比视界版本截图会出现颜色异常,请使用支持的设备播放!



1 个附件 售价 大小 下载 时间

Divas.Hit.The.Road.S06.2014.2160p.WEB-DL.H265.AAC-LelveTV[1LOU.ME].torrent 0 金币 16.89K 462 次 1月前

#1楼
发帖时间:2024-05-21 13:38:16   |   回复数:0
游客组