BILL36
隐世仙人♂

[2024] [大陆] [真人秀] [WEB-4K] 极限挑战 第十季[60帧率版本][第05集][国语配音/中文字幕].Go.Fighting.S10.2024.2160p.WEB-DL.H265.60fps.A

-->

完整标题:极限挑战 第十季[60帧率版本][第05集][国语配音/中文字幕].Go.Fighting.S10.2024.2160p.WEB-DL.H265.60fps.AAC-LelveTV 6.67GB



◎标  题 极限挑战 第十季
◎译  名 极限挑战10
◎年  代 2024
◎产  地 中国大陆
◎类  别 真人秀
◎语  言 汉语普通话
◎IMDb链接 https://www.imdb.com/title//
◎豆瓣链接 https://movie.douban.com/subject/36700888/
◎演  员 黄晓明 Xiaoming Huang
      黄明昊 Justin Huang
      严浩翔 Haoxiang Yan
      岳云鹏 Yunpeng Yue
      黄景瑜 Johnny Huang
      小沈阳 Xiao Shen-Yang
      龚俊 Jun Gong
      贾乃亮 Nailiang Jia
      大张伟 Wowkie Zhang
      谭卓 Zhuo Tan

◎简  介
    《极限挑战》将在明年迎来十岁生日。《极限挑战》第十季将以“回归”为大主   题,新老嘉宾齐聚一堂,重现观众们熟悉的经典系列。

部分资源为软字幕,移动端推荐播放器:MxPlayer,nPlayer,infuse ,其他播放器请自行尝试。

部分资源为软字幕,电脑端推荐播放器:PotPlayer,完美解码,KMPLAYER,其他播放器请自行尝试。

下载端推荐纯BT下载软件:qBittorrent,Bitcomet,uTorrent ,其他下载软件请自行尝试。不支持吸血迅雷。

##### MediaInfo ######
General
Unique ID : 292086765899900376620308807232932532309 (0xDBBDDD68D06063A7BB96922D2C33D055)
Complete name : Go.Fighting.S10E05.2024.2160p.WEB-DL.H265.60fps.AAC-LelveTV.mkv
Duration : 1 h 48 min
Overall bit rate : 8 789 kb/s

Video
ID : 1
Format : HEVC
Format/Info : High Efficiency Video Coding
Format profile : [email protected]@Main
Codec ID : V_MPEGH/ISO/HEVC
Duration : 1 h 48 min
Bit rate : 8 595 kb/s
Width : 3 840 pixels
Height : 2 160 pixels
Display aspect ratio : 16:9
Frame rate mode : Constant
Frame rate : 60.000 FPS
Color space : YUV
Chroma subsampling : 4:2:0
Bit depth : 8 bits
Bits/(Pixel*Frame) : 0.017
Stream size : 6.52 GiB (98%)
Language : Chinese
Default : Yes
Forced : No

Audio
ID : 2
Format : AAC LC
Format/Info : Advanced Audio Codec Low Complexity
Codec ID : A_AAC-2
Duration : 1 h 48 min
Bit rate : 192 kb/s
Channel(s) : 2 channels
Channel layout : L R
Sampling rate : 44.1 kHz
Frame rate : 43.066 FPS (1024 SPF)
Compression mode : Lossy
Stream size : 148 MiB (2%)
Default : No
Forced : No


点击图片可查看大图

软字幕无法在截图上展现,HDR版本/杜比视界版本截图会出现颜色异常,请使用支持的设备播放!



1 个附件 售价 大小 下载 时间

Go.Fighting.S10.2024.2160p.WEB-DL.H265.60fps.AAC-LelveTV[1LOU.ME].torrent 0 金币 19.18K 168 次 1月前

#1楼
发帖时间:2024-05-21 13:37:35   |   回复数:0
游客组