BILL36
隐世仙人♂

[2024] [大陆] [爱情] [WEB-4K] 南玉卿心[第01-06集][国语配音/中文字幕].Practice.Daughter.S01.2024.2160p.WEB-DL.H265.AAC-ColorW

-->

完整标题:南玉卿心[第01-06集][国语配音/中文字幕].Practice.Daughter.S01.2024.2160p.WEB-DL.H265.AAC-ColorWEB 7.43GB



◎标  题 南玉卿心
◎译  名 见习千金 / 神偷俏王妃
◎年  代 2024
◎产  地 中国大陆
◎类  别 爱情 / 古装
◎语  言 汉语普通话
◎IMDb链接 https://www.imdb.com/title//
◎豆瓣链接 https://movie.douban.com/subject/35775721/
◎演  员 杨昊铭 Haoming Yang
      张淼怡 Miaoyi Zhang
      徐可 Ke Xu
      陈思宇 Siyu Chen
      孙子航 Zihang Sun
      戴毅 Yi Dai
      付柔美琦 Roumeiqi Fu
      李润野 Runye Li
      李颂慈 Songci Li

◎简  介
    贵为梅丞相(戴毅饰)千金的梅玉扇(张淼怡饰)与神偷小豆子(陈思宇饰)两个性格迥异,身份悬殊的姑娘,在交换人生的过程中引发了许多啼笑皆非的故事,看身为丞相之女的梅玉扇如何用“霸道神偷”的反转魅力攻略籍西国太子南宫曜(杨昊铭饰),而高冷又强迫症满格的太子最终是否能打破国师白烨(徐可饰)对太子因爱情引发籍西灭国的预言,做到不负家国不负卿...

部分资源为软字幕,移动端推荐播放器:MxPlayer,nPlayer,infuse ,其他播放器请自行尝试。

部分资源为软字幕,电脑端推荐播放器:PotPlayer,完美解码,KMPLAYER,其他播放器请自行尝试。

下载端推荐纯BT下载软件:qBittorrent,Bitcomet,uTorrent ,其他下载软件请自行尝试。不支持吸血迅雷。

##### MediaInfo ######
General
Unique ID : 112308216825915705609481249333043402286 (0x547DC6996CBF33EDC21B834F5EF6162E)
Complete name : 南玉卿心.Practice.Daughter.S01E01.2024.2160p.WEB-DL.H265.AAC-ColorWEB.mkv
Duration : 38 min 56 s
Overall bit rate : 5 527 kb/s

Video
ID : 1
Format : HEVC
Format/Info : High Efficiency Video Coding
Format profile : Main@L5@Main
Codec ID : V_MPEGH/ISO/HEVC
Duration : 38 min 56 s
Bit rate : 5 332 kb/s
Width : 3 840 pixels
Height : 2 160 pixels
Display aspect ratio : 16:9
Frame rate mode : Constant
Frame rate : 25.000 FPS
Color space : YUV
Chroma subsampling : 4:2:0
Bit depth : 8 bits
Bits/(Pixel*Frame) : 0.026
Stream size : 1.45 GiB (96%)
Default : Yes
Forced : No
Color range : Limited
Color primaries : BT.709
Transfer characteristics : BT.709
Matrix coefficients : BT.709

Audio
ID : 2
Format : AAC LC
Format/Info : Advanced Audio Codec Low Complexity
Codec ID : A_AAC-2
Duration : 38 min 56 s
Bit rate : 192 kb/s
Channel(s) : 2 channels
Channel layout : L R
Sampling rate : 44.1 kHz
Frame rate : 43.066 FPS (1024 SPF)
Compression mode : Lossy
Stream size : 53.5 MiB (3%)
Default : Yes
Forced : No

Menu
00:03:37.000 : zh:梅玉扇和小豆子变换各种姿势仍无效
00:16:30.000 : zh:小豆子携手爹爹们偷宝物机关重重
00:32:51.000 : zh:梅玉扇勇敢进言希望帮太子解决难题


点击图片可查看大图

软字幕无法在截图上展现,HDR版本/杜比视界版本截图会出现颜色异常,请使用支持的设备播放!



1 个附件 售价 大小 下载 时间

Practice.Daughter.S01.2024.2160p.WEB-DL.H265.AAC-ColorWEB[1LOU.ME].torrent 0 金币 21.60K 147 次 1月前

#1楼
发帖时间:2024-05-21 12:32:32   |   回复数:0
游客组