BILL36
隐世仙人♂

[2024] [大陆] [动作] [WEB-1080P] 反派初始化[第08集][国语配音/中文字幕].Villain.Initialization.S01.2024.1080p.WEB-DL.H264.AAC-Zer

-->

完整标题:反派初始化[第08集][国语配音/中文字幕].Villain.Initialization.S01.2024.1080p.WEB-DL.H264.AAC-ZeroTV 0.39GB



◎标  题 反派初始化
◎译  名 Villain Initialization
◎年  代 2024
◎产  地 中国大陆
◎类  别 动作 / 动画 / 奇幻 / 冒险
◎语  言 汉语普通话
◎IMDb链接 https://www.imdb.com/title//
◎豆瓣链接 https://movie.douban.com/subject/35679834/
◎导  演 林灵均 Lingjun Lin
◎演  员 陈张太康 Zhangtaikang Chen
      钱文青 Wenqing Qian
      陶典 Dian Tao
      曾梦玉 Mengyu Zeng

◎简  介
    2048年,超级反派凌辰(化名潘洛斯)在和死对头超级英雄叶子暮的激战中意外穿越回2030年的高二。在回家见到姨母确定了自己穿越的事实后,凌辰决定,这次一定要守护好上一世因叶子暮害死的姨母,除掉叶子暮。”重生“的时间线充满变数,这次,凌辰相信自己可以改变一切!

部分资源为软字幕,移动端推荐播放器:MxPlayer,nPlayer,infuse ,其他播放器请自行尝试。

部分资源为软字幕,电脑端推荐播放器:PotPlayer,完美解码,KMPLAYER,其他播放器请自行尝试。

下载端推荐纯BT下载软件:qBittorrent,Bitcomet,uTorrent ,其他下载软件请自行尝试。不支持吸血迅雷。

##### MediaInfo ######
General
Complete name : 反派初始化.Villain.Initialization.S01E08.2024.1080p.WEB-DL.H264.AAC-ZeroTV.mp4
Duration : 18 min 47 s
Overall bit rate : 2 978 kb/s

Video
ID : 1
Format : AVC
Format/Info : Advanced Video Codec
Format profile : High@L5
Format settings : CABAC / 6 Ref Frames
Format settings, CABAC : Yes
Format settings, Reference frames : 6 frames
Codec ID : avc1
Codec ID/Info : Advanced Video Coding
Duration : 18 min 47 s
Bit rate : 2 779 kb/s
Width : 1 920 pixels
Height : 1 080 pixels
Display aspect ratio : 16:9
Frame rate mode : Constant
Frame rate : 25.000 FPS
Color space : YUV
Chroma subsampling : 4:2:0
Bit depth : 8 bits
Scan type : Progressive
Bits/(Pixel*Frame) : 0.054
Stream size : 373 MiB (93%)
Encoded date : UTC 2024-05-21 03:00:00
Tagged date : UTC 2024-05-21 03:00:00
Color range : Limited
Color primaries : BT.709
Transfer characteristics : BT.709
Matrix coefficients : BT.709
Menus : 3
Codec configuration box : avcC

Audio
ID : 2
Format : AAC LC
Format/Info : Advanced Audio Codec Low Complexity
Codec ID : mp4a-40-2
Duration : 18 min 47 s
Bit rate mode : Constant
Bit rate : 192 kb/s
Channel(s) : 2 channels
Channel layout : L R
Sampling rate : 48.0 kHz
Frame rate : 46.875 FPS (1024 SPF)
Compression mode : Lossy
Stream size : 25.9 MiB (6%)
Language : Chinese
Default : Yes
Alternate group : 1
Encoded date : UTC 2024-05-21 03:00:00
Tagged date : UTC 2024-05-21 03:00:00
Menus : 3

Menu #1
ID : 3
Format : Timed Text
Codec ID : text
Duration : 18 min 47 s
Language : English
Encoded date : UTC 2024-05-21 03:00:00
Tagged date : UTC 2024-05-21 03:00:00
Bit rate mode : CBR
Menu For : 1,2
00:00:00.000 : 正片
00:01:24.000 : 片头
00:02:48.000 : 正片
00:17:13.000 : 片尾
Bit rate mode : Constant

Menu #2
00:00:00.000 : 正片
00:01:24.000 : 片头
00:02:48.000 : 正片
00:17:13.000 : 片尾


点击图片可查看大图

软字幕无法在截图上展现,HDR版本/杜比视界版本截图会出现颜色异常,请使用支持的设备播放!



1 个附件 售价 大小 下载 时间

Villain.Initialization.S01.2024.1080p.WEB-DL.H264.AAC-ZeroTV[1LOU.ME].torrent 0 金币 3.50K 378 次 1月前

#1楼
发帖时间:2024-05-21 11:32:36   |   回复数:0
游客组