BILL36
隐世仙人♂

[2024] [大陆] [动作] [WEB-1080P] 神龙星主[第39集][国语配音/中文字幕].Shen.Long.Xing.Zhu.S01.2024.1080p.WEB-DL.H264.AAC-ZeroTV 0

-->

完整标题:神龙星主[第39集][国语配音/中文字幕].Shen.Long.Xing.Zhu.S01.2024.1080p.WEB-DL.H264.AAC-ZeroTV 0.15GB



◎标  题 神龙星主
◎年  代 2024
◎产  地 中国大陆
◎类  别 动作 / 动画 / 奇幻
◎语  言 汉语普通话
◎IMDb链接 https://www.imdb.com/title//
◎豆瓣链接 https://movie.douban.com/subject/36732979/

◎简  介
    古争锋本是守护神龙星的神龙,在上古与外星敌人的战斗中身受重伤故陷入了长久的沉睡。时光荏苒,再度苏醒的古争锋发现神龙星早已物是人非,而昔日受人敬仰的神龙也成了人们口中的恶龙,为了调查真相,也为了取回藏在龙王学院的宝藏,古争锋化为人形以导师的身份进入龙王学院,却阴差阳错地成为屠龙系的老师,为此古争锋一面悉心教授学员,一面努力找寻宝藏,几番调查下,古争锋发现龙王宝藏的知情人皆已离世,眼下唯一的线索可能在副院长夜江雪的手中。在接近夜江雪的过程中,古争锋多次出手协助,让夜江雪沉寂已久的内心泛起一丝涟漪,而与此同时,古争锋也被一股神秘力量盯上,躲避了多次暗杀行动后,古争锋感觉旧时的威胁正在逐步逼近,而找寻宝藏恢复力量,锻炼学员组成新的神龙军团抗击敌人迫在眉睫……

部分资源为软字幕,移动端推荐播放器:MxPlayer,nPlayer,infuse ,其他播放器请自行尝试。

部分资源为软字幕,电脑端推荐播放器:PotPlayer,完美解码,KMPLAYER,其他播放器请自行尝试。

下载端推荐纯BT下载软件:qBittorrent,Bitcomet,uTorrent ,其他下载软件请自行尝试。不支持吸血迅雷。

##### MediaInfo ######
General
Complete name : 神龙星主.Shen.Long.Xing.Zhu.S01E39.2024.1080p.WEB-DL.H264.AAC-ZeroTV.mp4
Duration : 9 min 19 s
Overall bit rate mode : Variable
Overall bit rate : 2 309 kb/s

Video
ID : 1
Format : AVC
Format/Info : Advanced Video Codec
Format profile : High@L4
Format settings : CABAC / 3 Ref Frames
Format settings, CABAC : Yes
Format settings, Reference frames : 3 frames
Codec ID : avc1
Codec ID/Info : Advanced Video Coding
Duration : 9 min 19 s
Bit rate : 2 113 kb/s
Width : 1 920 pixels
Height : 1 080 pixels
Display aspect ratio : 16:9
Frame rate mode : Constant
Frame rate : 25.000 FPS
Color space : YUV
Chroma subsampling : 4:2:0
Bit depth : 8 bits
Scan type : Progressive
Bits/(Pixel*Frame) : 0.041
Stream size : 141 MiB (91%)
Color range : Limited
Color primaries : BT.709
Transfer characteristics : BT.709
Matrix coefficients : BT.709
Codec configuration box : avcC

Audio
ID : 2
Format : AAC LC
Format/Info : Advanced Audio Codec Low Complexity
Codec ID : mp4a-40-2
Duration : 9 min 19 s
Bit rate mode : Variable
Bit rate : 192 kb/s
Channel(s) : 2 channels
Channel layout : L R
Sampling rate : 44.1 kHz
Frame rate : 43.066 FPS (1024 SPF)
Compression mode : Lossy
Stream size : 12.7 MiB (8%)
Default : Yes
Alternate group : 1


点击图片可查看大图

软字幕无法在截图上展现,HDR版本/杜比视界版本截图会出现颜色异常,请使用支持的设备播放!



1 个附件 售价 大小 下载 时间

Shen.Long.Xing.Zhu.S01.2024.1080p.WEB-DL.H264.AAC-ZeroTV[1LOU.ME].torrent 0 金币 2.88K 259 次 1月前

#1楼
发帖时间:2024-05-21 10:32:45   |   回复数:0
游客组