BILL36
隐世仙人♂

[2019] [大陆] [动画] [WEB-1080P] 灵剑尊[第489集][国语配音/中文字幕].Spirit.Sword.Sovereign.S01.2019.1080p.WEB-DL.H265.AAC-Zero

-->

完整标题:灵剑尊[第489集][国语配音/中文字幕].Spirit.Sword.Sovereign.S01.2019.1080p.WEB-DL.H265.AAC-ZeroTV 0.15GB



◎标  题 灵剑尊
◎译  名 Spirit Sword Sovereign
◎年  代 2019
◎产  地 中国大陆
◎类  别 动画 / 奇幻
◎语  言 汉语普通话
◎IMDb链接 https://www.imdb.com/title//
◎豆瓣评分 5.4/10 (1133人评价)
◎豆瓣链接 https://movie.douban.com/subject/30437994/
◎演  员 关帅 Shuai Guan
      黄骥 Ji Huang
      季骜杰 Ji Aojie
      张妮 Ni Zhang
      钟巍 Wei Zhong

◎简  介
    《灵剑尊》是由索以文化制作的3D动画。根据同名小说《灵剑尊》和漫画《灵剑尊》改编。该动画讲述了落魄少年楚行云立志要改变现状奋发图强创造一片新天地的故事   大梦一场,落魄少年立志要改变现状奋发图强创造一片新天地。珍奇异宝,功法武决,遗失的强者洞府,在这个天才辈出,充满挑战和机缘的时代,且看落魄少主如何闯荡大陆、遭奇遇,成为叱咤风云的至尊天帝。以前的仇人,现在,绝不会放过!梦中的遗憾,现在,一定要弥补!待到灵剑长啸之时,天地三界,我为至尊!

部分资源为软字幕,移动端推荐播放器:MxPlayer,nPlayer,infuse ,其他播放器请自行尝试。

部分资源为软字幕,电脑端推荐播放器:PotPlayer,完美解码,KMPLAYER,其他播放器请自行尝试。

下载端推荐纯BT下载软件:qBittorrent,Bitcomet,uTorrent ,其他下载软件请自行尝试。不支持吸血迅雷。

##### MediaInfo ######
General
Complete name : 灵剑尊.Spirit.Sword.Sovereign.S01E489.2019.1080p.WEB-DL.H265.AAC-ZeroTV.mp4
Duration : 11 min 5 s
Overall bit rate mode : Variable
Overall bit rate : 1 880 kb/s

Video
ID : 1
Format : HEVC
Format/Info : High Efficiency Video Coding
Format profile : Main@L4@Main
Codec ID : hev1
Codec ID/Info : High Efficiency Video Coding
Duration : 11 min 5 s
Source duration : 11 min 5 s
Bit rate : 1 780 kb/s
Width : 1 920 pixels
Height : 1 080 pixels
Display aspect ratio : 16:9
Frame rate mode : Variable
Frame rate : 25.000 FPS
Minimum frame rate : 24.993 FPS
Maximum frame rate : 25.007 FPS
Color space : YUV
Chroma subsampling : 4:2:0
Bit depth : 8 bits
Bits/(Pixel*Frame) : 0.034
Stream size : 141 MiB (95%)
Source stream size : 141 MiB (95%)
Color range : Limited
Color primaries : BT.709
Transfer characteristics : BT.709
Matrix coefficients : BT.709
Codec configuration box : hvcC

Audio
ID : 2
Format : AAC LC
Format/Info : Advanced Audio Codec Low Complexity
Codec ID : mp4a-40-2
Duration : 11 min 5 s
Bit rate mode : Variable
Bit rate : 93.4 kb/s
Maximum bit rate : 97.0 kb/s
Channel(s) : 2 channels
Channel layout : L R
Sampling rate : 48.0 kHz
Frame rate : 46.875 FPS (1024 SPF)
Compression mode : Lossy
Stream size : 7.41 MiB (5%)
Default : Yes
Alternate group : 1


点击图片可查看大图

软字幕无法在截图上展现,HDR版本/杜比视界版本截图会出现颜色异常,请使用支持的设备播放!



1 个附件 售价 大小 下载 时间

Spirit.Sword.Sovereign.S01.2019.1080p.WEB-DL.H265.AAC-ZeroTV[1LOU.ME].torrent 0 金币 2.86K 140 次 1月前

#1楼
发帖时间:2024-05-21 10:32:17   |   回复数:0
游客组