BILL36
隐世仙人♂

[2024] [大陆] [剧情] [WEB-4K] 群星闪耀时[第01-04集][国语配音/中文字幕].Shooting.Stars.S01.2024.2160p.WEB-DL.H265.AAC-BlackTV

-->

完整标题:群星闪耀时[第01-04集][国语配音/中文字幕].Shooting.Stars.S01.2024.2160p.WEB-DL.H265.AAC-BlackTV 5.66GB



◎标  题 群星闪耀时
◎译  名 Shooting Stars / When the Stars Shine
◎年  代 2024
◎产  地 中国大陆
◎类  别 剧情 / 悬疑
◎语  言 汉语普通话
◎IMDb链接 https://www.imdb.com/title/tt29931598/
◎豆瓣链接 https://movie.douban.com/subject/36067150/
◎导  演 万里扬 Liyang Wan
◎编  剧 黄琛 Chen Huang
      蒲维 Wei Pu
◎演  员 李现 Xian Li
      任敏 Min Ren
      周游 You Zhou
      王紫璇 Zixuan Wang
      王茂蕾 Maolei Wang
      宋芳园 Fangyuan Song
      蒋易 Yi Jiang
      李祉默 Zhimo Li
      宋宁峰 Ningfeng Song
      黄志忠 Zhizhong Huang

◎简  介
    抗战时期,出身于国民党高官家庭的华桢原本要参加海军,实现自己成为舰长的梦想。然而一趟意外的上海之行,华桢的人生被彻底改变—他改名向远生并成为了一间破落派出所的底层警员。在这里,向远生遇到了一生中最重要的两个人—共产党员陈浩和骆珉敏,他们让向远生找到了人生的意义。在陈浩、骆珉敏等人的影响下,向远生坚定了共产主义信仰,最终成为党隐蔽战线上一名优秀的战士,成全了自己对理想信仰的追求。

部分资源为软字幕,移动端推荐播放器:MxPlayer,nPlayer,infuse ,其他播放器请自行尝试。

部分资源为软字幕,电脑端推荐播放器:PotPlayer,完美解码,KMPLAYER,其他播放器请自行尝试。

下载端推荐纯BT下载软件:qBittorrent,Bitcomet,uTorrent ,其他下载软件请自行尝试。不支持吸血迅雷。

##### MediaInfo ######
General
Unique ID : 329577515258882805560215472203975027877 (0xF7F25210711B812675941E766AC6ECA5)
Complete name : Shooting.Stars.S01E01.2024.2160p.WEB-DL.H265.AAC-BlackTV.mkv
Duration : 46 min 15 s
Overall bit rate : 4 749 kb/s

Video
ID : 1
Format : HEVC
Format/Info : High Efficiency Video Coding
Format profile : Main@L5@Main
Codec ID : V_MPEGH/ISO/HEVC
Duration : 46 min 15 s
Bit rate : 4 557 kb/s
Width : 3 840 pixels
Height : 2 160 pixels
Display aspect ratio : 16:9
Frame rate mode : Constant
Frame rate : 25.000 FPS
Color space : YUV
Chroma subsampling : 4:2:0
Bit depth : 8 bits
Bits/(Pixel*Frame) : 0.022
Stream size : 1.47 GiB (96%)
Writing library : 200910.mgtv.com
Language : Chinese
Default : Yes
Forced : No
Color range : Limited
Color primaries : BT.709
Transfer characteristics : BT.709
Matrix coefficients : BT.709

Audio
ID : 2
Format : AAC LC
Format/Info : Advanced Audio Codec Low Complexity
Codec ID : A_AAC-2
Duration : 46 min 15 s
Bit rate : 192 kb/s
Channel(s) : 2 channels
Channel layout : L R
Sampling rate : 44.1 kHz
Frame rate : 43.066 FPS (1024 SPF)
Compression mode : Lossy
Stream size : 62.7 MiB (4%)
Title : Mandarin [AAC2.0]
Language : Chinese
Default : No
Forced : No

Menu
00:15:38.000 : zh:邓铭远托书于华桢
00:27:42.000 : zh:华桢偶遇灭门凶案救下孟多慈
00:41:14.000 : zh:华桢终于明白邓铭远的嘱托


点击图片可查看大图

软字幕无法在截图上展现,HDR版本/杜比视界版本截图会出现颜色异常,请使用支持的设备播放!



1 个附件 售价 大小 下载 时间

Shooting.Stars.S01.2024.2160p.WEB-DL.H265.AAC-BlackTV[1LOU.ME].torrent 0 金币 16.84K 777 次 1月前

#1楼
发帖时间:2024-04-16 02:39:18   |   回复数:0
游客组