BILL36
隐世仙人♂

[2024] [大陆] [剧情] [WEB-4K] 城中之城[第11-12集][国语配音/中文字幕].City.of.the.City.S01.2024.2160p.WEB-DL.H265.HDR.DDP2.0-

-->

完整标题:城中之城[第11-12集][国语配音/中文字幕].City.of.the.City.S01.2024.2160p.WEB-DL.H265.HDR.DDP2.0-LelveTV 5.51GB



◎标  题 城中之城
◎译  名 City of the City
◎年  代 2024
◎产  地 中国大陆
◎类  别 剧情
◎语  言 汉语普通话
◎IMDb链接 https://www.imdb.com/title/tt27951268/
◎豆瓣链接 https://movie.douban.com/subject/35209732/
◎导  演 滕华涛 Hua-Tao Teng
◎编  剧 卞智弘 Zhihong Bian
      吴楠 Nan Wu
      田雨 Yu Tian
      滕肖澜 Xiaolan Teng
◎演  员 白宇帆 Yufan Bai
      于和伟 Hewei Yu
      夏梦 Meng Xia
      隆妮 Longni Cheng
      王骁 Xiao Wang
      冯嘉怡 Jiayi Feng
      王劲松 Jinsong Wang
      杨子姗 Zishan Yang
      陈瑾 Jin Chen
      涂松岩 Songyan Tu
      章申 Shen Zhang
      张建亚 Jianya Zhang
      姚一奇 Yiqi Yao
      刘思远
      冷纪元 Jiyuan Leng
      封新天 Xintian Feng
      都兰 Du Lan
      邢岷山 Minshan Xing
      李颖 Ying Li
      节冰 Bing Jie
      李洪涛 Hongtao Li
      顾宇峰 Yufeng Gu
      虞金泽 Jinze Yu
      董晴 Qing Dong
      高蓓蓓 Beibei Gao
      曲高位 Gaowei Qu
      韦奕波 Yibo Wei
      张衣 Yi Zhang
      彭赛 Sai Peng
      杨雨婷 Yuting Yang
      文静 Jing Wen
      严永瑄 Yongxuan Yan
      许国栋 Guodong Xu
      姚卓君 Zhuojun Yao
      刘若嫣 Ruoyan Liu
      牛北壬 Beiren Niu
      吴金鑫 Jinxin Wu

◎简  介
    该剧根据滕肖澜同名长篇小说改编,以大都市金融城为背景,展现了银行新人陶无忌(白宇帆 饰)、支行副行长赵辉(于和伟 饰)以及审计负责人苗彻(王骁 饰)之间围绕利益与初心的一场激烈对决。在这场情与法的较量中,陶无忌逐渐成长为新一代金融业秩序的守护者。

部分资源为软字幕,移动端推荐播放器:MxPlayer,nPlayer,infuse ,其他播放器请自行尝试。

部分资源为软字幕,电脑端推荐播放器:PotPlayer,完美解码,KMPLAYER,其他播放器请自行尝试。

下载端推荐纯BT下载软件:qBittorrent,Bitcomet,uTorrent ,其他下载软件请自行尝试。不支持吸血迅雷。

##### MediaInfo ######
General
Unique ID : 13136293310527783640041225876669618739 (0x9E1F543B70E9CA2E0CC9D386AD25A33)
Complete name : City.of.the.City.S01E11.2024.2160p.WEB-DL.H265.HDR.DDP2.0-LelveTV.mkv
Duration : 45 min 59 s
Overall bit rate : 8 688 kb/s

Video
ID : 1
Format : HEVC
Format/Info : High Efficiency Video Coding
Format profile : Main 10@L5@Main
HDR format : SMPTE ST 2086, HDR10 compatible
Codec ID : V_MPEGH/ISO/HEVC
Duration : 45 min 59 s
Bit rate : 8 398 kb/s
Width : 3 840 pixels
Height : 2 160 pixels
Display aspect ratio : 16:9
Frame rate mode : Constant
Frame rate : 25.000 FPS
Color space : YUV
Chroma subsampling : 4:2:0
Bit depth : 10 bits
Bits/(Pixel*Frame) : 0.041
Stream size : 2.70 GiB (97%)
Language : Chinese
Default : Yes
Forced : No
Color range : Limited
Color primaries : BT.2020
Transfer characteristics : PQ
Matrix coefficients : BT.2020 non-constant
Mastering display color primaries : R: x=0.708000 y=0.292000, G: x=0.170000 y=0.797000, B: x=0.130000 y=0.046000, White point: x=0.312700 y=0.329000
Mastering display luminance : min: 0.0001 cd/m2, max: 1000 cd/m2
Maximum Content Light Level : 666 cd/m2
Maximum Frame-Average Light Level : 281 cd/m2

Audio #1
ID : 2
Format : AAC LC
Format/Info : Advanced Audio Codec Low Complexity
Codec ID : A_AAC-2
Duration : 45 min 59 s
Bit rate : 192 kb/s
Channel(s) : 2 channels
Channel layout : L R
Sampling rate : 44.1 kHz
Frame rate : 43.066 FPS (1024 SPF)
Compression mode : Lossy
Delay relative to video : -160 ms
Stream size : 63.2 MiB (2%)
Default : No
Forced : No

Audio #2
ID : 3
Format : E-AC-3
Format/Info : Enhanced AC-3
Commercial name : Dolby Digital Plus
Codec ID : A_EAC3
Duration : 45 min 59 s
Bit rate mode : Constant
Bit rate : 96.0 kb/s
Channel(s) : 2 channels
Channel layout : L R
Sampling rate : 48.0 kHz
Frame rate : 31.250 FPS (1536 SPF)
Compression mode : Lossy
Delay relative to video : -160 ms
Stream size : 31.6 MiB (1%)
Title : zh-ch [Dolby Digital Plus 2.0]
Language : Chinese
Service kind : Complete Main
Default : Yes
Forced : No


点击图片可查看大图

软字幕无法在截图上展现,HDR版本/杜比视界版本截图会出现颜色异常,请使用支持的设备播放!



1 个附件 售价 大小 下载 时间

City.of.the.City.S01.2024.2160p.WEB-DL.H265.HDR.DDP2.0-LelveTV[1LOU.ME].torrent 0 金币 16.31K 1715 次 1月前

#1楼
发帖时间:2024-04-16 02:33:50   |   回复数:0
游客组