BILL36
隐世仙人♂

[2024] [日本] [动画] [WEB-1080P] 月光下的异世界之旅 第二季[第15集][中文字幕].2024.1080p.WEB-DL.H264.AAC-ZeroTV 1.25GB

-->

完整标题:月光下的异世界之旅 第二季[第15集][中文字幕].2024.1080p.WEB-DL.H264.AAC-ZeroTV 1.25GB



◎标  题 月光下的异世界之旅 第二季
◎片  名 月が導く異世界道中 第二幕
◎年  代 2024
◎产  地 日本
◎类  别 动画
◎语  言 日语
◎IMDb链接 https://www.imdb.com/title//
◎豆瓣链接 https://movie.douban.com/subject/35609723/
◎导  演 石平信司 Shinji Ishihira
◎编  剧 猪原健太 Kenta Ihara
◎演  员 花江夏树 Natsuki Hanae
      佐仓绫音 Ayane Sakura
      鬼头明里 Akari Kitō
      津田健次郎 Kenjirô Tsuda
      笹本菜津枝 Sasamoto Natsue
      月城亚美 Tsukishiro Ami

◎简  介
    #月光下的异世界之旅#动画第二季制作决定~   PV链接:   https://www.bilibili.com/video/BV1Kb4y117dm

部分资源为软字幕,移动端推荐播放器:MxPlayer,nPlayer,infuse ,其他播放器请自行尝试。

部分资源为软字幕,电脑端推荐播放器:PotPlayer,完美解码,KMPLAYER,其他播放器请自行尝试。

下载端推荐纯BT下载软件:qBittorrent,Bitcomet,uTorrent ,其他下载软件请自行尝试。不支持吸血迅雷。

##### MediaInfo ######
General
Unique ID : 117481275072194387063262942182412281063 (0x5862120FFFE07E6107A780CD52A264E7)
Complete name : Tsuki.ga.Michibiku.Isekai.Douchuu.S02E15.2024.1080p.WEB-DL.H264.AAC-ZeroTV.mkv
Duration : 23 min 39 s
Overall bit rate : 7 538 kb/s

Video
ID : 1
Format : AVC
Format/Info : Advanced Video Codec
Format profile : [email protected]
Format settings : CABAC / 1 Ref Frames
Format settings, CABAC : Yes
Format settings, Reference frames : 1 frame
Format settings, GOP : M=1, N=60
Codec ID : V_MPEG4/ISO/AVC
Duration : 23 min 39 s
Bit rate mode : Constant
Bit rate : 7 409 kb/s
Nominal bit rate : 8 000 kb/s
Width : 1 920 pixels
Height : 1 080 pixels
Display aspect ratio : 16:9
Frame rate mode : Constant
Frame rate : 29.970 (30000/1001) FPS
Color space : YUV
Chroma subsampling : 4:2:0
Bit depth : 8 bits
Scan type : Progressive
Bits/(Pixel*Frame) : 0.119
Stream size : 1.22 GiB (98%)
Language : English
Default : Yes
Forced : No

Audio
ID : 2
Format : AAC LC
Format/Info : Advanced Audio Codec Low Complexity
Codec ID : A_AAC-2
Duration : 23 min 39 s
Bit rate : 125 kb/s
Channel(s) : 2 channels
Channel layout : L R
Sampling rate : 48.0 kHz
Frame rate : 46.875 FPS (1024 SPF)
Compression mode : Lossy
Stream size : 21.2 MiB (2%)
Title : 日语
Language : Japanese
Default : Yes
Forced : No

Text #1
ID : 3
Format : UTF-8
Codec ID : S_TEXT/UTF8
Codec ID/Info : UTF-8 Plain Text
Duration : 23 min 37 s
Bit rate : 65 b/s
Frame rate : 0.289 FPS
Count of elements : 409
Stream size : 11.3 KiB (0%)
Title : 简体中文
Language : Chinese
Default : No
Forced : No

Text #2
ID : 4
Format : UTF-8
Codec ID : S_TEXT/UTF8
Codec ID/Info : UTF-8 Plain Text
Duration : 23 min 37 s
Bit rate : 65 b/s
Frame rate : 0.289 FPS
Count of elements : 409
Stream size : 11.3 KiB (0%)
Title : 繁体中文
Language : Chinese
Default : No
Forced : No


点击图片可查看大图

软字幕无法在截图上展现,HDR版本/杜比视界版本截图会出现颜色异常,请使用支持的设备播放!



1 个附件 售价 大小 下载 时间

2024.1080p.WEB-DL.H264.AAC-ZeroTV[1LOU.ME].torrent 0 金币 5.54K 280 次 1月前

#1楼
发帖时间:2024-04-16 02:27:54   |   回复数:0
游客组