BILL36
隐世仙人♂

[2010] [韩国] [喜剧] [WEB-1080P] Running Man[第700集][中文字幕].Running.Man.S01.2010.1080p.WEB-DL.H264.AAC-LelveTV 5.42

-->

完整标题:Running Man[第700集][中文字幕].Running.Man.S01.2010.1080p.WEB-DL.H264.AAC-LelveTV 5.42GB



◎标  题 Running Man
◎译  名 奔跑吧!孩子们 / 跑男 / Leonning maen
◎片  名 런닝맨
◎年  代 2010
◎产  地 韩国
◎类  别 喜剧 / 运动 / 真人秀
◎语  言 韩语
◎IMDb评分 9.1/10 (3482人评价)
◎IMDb链接 https://www.imdb.com/title/tt2185037/
◎豆瓣评分 9.6/10 (59988人评价)
◎豆瓣链接 https://movie.douban.com/subject/10509888/
◎演  员 刘在石 Jae-seok Yu
      河东勋 Dong-hoon Ha
      李光洙 Kwang-soo Lee
      金钟国 Jong-Kook Kim
      池石镇 Seok-jin Ji
      姜熙建 Hee-gun Kang
      宋智孝 Ji-hyo Song
      韩孝周 Hyo-joo Han
      宋仲基 Joong-ki Song
      朴宝英 Bo-young Park
      金相庆 Sang-kyung Kim
      金民钟 Min-jong Kim
      安喜延 HaNi
      李宣美 Sun-mi Lee
      金珍妮 Jennie Kim
      方敏雅 MINAH
      金栽经 Jae-kyung Kim
      Lisa Lalisa Manobal
      金智秀 Ji-soo Kim
      朴草娥 Park Cho Ah
      朴彩英 Roseanne Park
      率滨 Solbin
      车勋 Cha Hun
      金志妍 Kei
      胡玄珠 Jessi
      刘些宁 Sally
      金珉奎 Min-gyu Kim
      金娜英 Na-young Kim
      李艺真 Ailee
      张睿恩 Jang Ye Eun
      金宝城 Bo-sung Kim
      千成文 Cheon Seong Moon
      梁世灿 Yang Se chan
      藤田小百合 Fujita Sayuri
      权光珍 Kwon Kwang Jin
      具滋哲 Ja-Cheol Koo
      倞利 Gyeongree
      朴修弘 Soo-Hong Park
      张真熙 Jin-hee Jang
      安丹尼尔 Niel
      张艺媛 Ye-Won Jang
      金泰宪 Kim Tae Heon
      赵石 Seok Jo
      金智珉 Ji-Min Kim
      金素贤 Kim So Hyun
      姜均成 Kang Kyun-Sung
      申奉仙 Bong-Sun Shin
      苏俊燮 Shorry J
      金济东 Kim Je Dong
      崔成希 Bada
      孙艺珍 Ye-jin Son
      郑在炯 Jung Jae-hyung
      全昭旻 So-min Jeon
      柳始我 YooA
      李国主 Gook-ju Lee
      郑美美 Mimi Jung

◎简  介
    Running Man是韩国SBS电视台周末娱乐节目《星期天真好》新的版块,是韩国著名主持人刘在石自“家族诞生”第一季结束后时隔五个月接手的SBS新艺能节目,作为刘在石的SBS艺能节目回归之作,running man致力于打造一个不同于过去real variety的新型态娱乐节目。可以说是SBS赌上自尊心的新艺能节目。2010年7月11日起作为‘星期日真好-1部’播放。 节目通过组队游戏获取金币或running ball 最后决定胜者,输的一队将接受惩罚。节目由刘在石,池石镇,HAHA,金钟国,Gary姜熙健,宋智孝,李光洙等搞笑性、艺能性极高的艺人主持。

部分资源为软字幕,移动端推荐播放器:MxPlayer,nPlayer,infuse ,其他播放器请自行尝试。

部分资源为软字幕,电脑端推荐播放器:PotPlayer,完美解码,KMPLAYER,其他播放器请自行尝试。

下载端推荐纯BT下载软件:qBittorrent,Bitcomet,uTorrent ,其他下载软件请自行尝试。不支持吸血迅雷。

##### MediaInfo ######
General
Unique ID : 164917005784715326668982958913502938039 (0x7C11DC2783C4084C6548EF8B37D583B7)
Complete name : Running.Man.S01E700.2010.1080p.WEB-DL.H264.AAC-LelveTV.mkv
Duration : 1 h 38 min
Overall bit rate : 7 855 kb/s

Video
ID : 1
Format : AVC
Format/Info : Advanced Video Codec
Format profile : [email protected]
Format settings : CABAC / 1 Ref Frames
Format settings, CABAC : Yes
Format settings, Reference frames : 1 frame
Format settings, GOP : M=1, N=60
Codec ID : V_MPEG4/ISO/AVC
Duration : 1 h 38 min
Bit rate mode : Constant
Bit rate : 8 000 kb/s
Width : 1 920 pixels
Height : 1 080 pixels
Display aspect ratio : 16:9
Frame rate mode : Constant
Frame rate : 29.970 (30000/1001) FPS
Color space : YUV
Chroma subsampling : 4:2:0
Bit depth : 8 bits
Scan type : Progressive
Bits/(Pixel*Frame) : 0.129
Stream size : 5.33 GiB (98%)
Default : Yes
Forced : No

Audio
ID : 2
Format : AAC LC
Format/Info : Advanced Audio Codec Low Complexity
Codec ID : A_AAC-2
Duration : 1 h 38 min
Bit rate : 125 kb/s
Channel(s) : 2 channels
Channel layout : L R
Sampling rate : 48.0 kHz
Frame rate : 46.875 FPS (1024 SPF)
Compression mode : Lossy
Stream size : 88.7 MiB (2%)
Default : No
Forced : No

Text #1
ID : 3
Format : UTF-8
Codec ID : S_TEXT/UTF8
Codec ID/Info : UTF-8 Plain Text
Duration : 1 h 38 min
Bit rate : 96 b/s
Frame rate : 0.411 FPS
Count of elements : 2438
Stream size : 69.7 KiB (0%)
Title : Simplified
Language : Chinese
Default : Yes
Forced : No

Text #2
ID : 4
Format : UTF-8
Codec ID : S_TEXT/UTF8
Codec ID/Info : UTF-8 Plain Text
Duration : 1 h 38 min
Bit rate : 96 b/s
Frame rate : 0.411 FPS
Count of elements : 2438
Stream size : 69.7 KiB (0%)
Title : Traditional
Language : Chinese
Default : No
Forced : No


点击图片可查看大图

软字幕无法在截图上展现,HDR版本/杜比视界版本截图会出现颜色异常,请使用支持的设备播放!



1 个附件 售价 大小 下载 时间

Running.Man.S01.2010.1080p.WEB-DL.H264.AAC-LelveTV[1LOU.ME].torrent 0 金币 15.96K 189 次 1月前

#1楼
发帖时间:2024-04-16 02:24:17   |   回复数:0
游客组