BILL36
隐世仙人♂

[2024] [日本] [动画] [WEB-1080P] 怪物转生[第03集][中文字幕].Re.Monster.S01.2024.1080p.WEB-DL.H264.AAC-ZeroTV 1.29GB

-->

完整标题:怪物转生[第03集][中文字幕].Re.Monster.S01.2024.1080p.WEB-DL.H264.AAC-ZeroTV 1.29GB



◎标  题 怪物转生
◎译  名 リ·モンスター
◎片  名 Re:Monster
◎年  代 2024
◎产  地 日本
◎类  别 动画 / 奇幻 / 冒险
◎语  言 日语
◎IMDb链接 https://www.imdb.com/title//
◎豆瓣链接 https://movie.douban.com/subject/36575260/
◎导  演 稻垣隆行 Takayuki Inagaki
◎编  剧 山口宏 Hiroshi Yamaguchi
◎演  员 佐藤拓也 Takuya Sato
      细田健太 Hosoda Kenta
      加隈亚衣 Ai Kakuma
      植田佳奈 Kana Ueda
      山根绮 Yamane Aya
      大森日雅 Nichika Omori
      菅野真衣 Mai Kanno
      山村响 Hibiku Yamamura
      岛袋美由利 Miyuri Shimabukuro
      东城日沙子 Hisako Tojo
      飞田展男 Nobuo Tobita
      稗田宁宁 Hieda Nene

◎简  介
    伴杭彼方被跟踪狂突然刺杀,醒来后发现自己已经转生为最弱哥布林,哥布朗。凭借越吃越强的【吸食能力】,经历了非凡的进化后,转眼就到达了哥布林族群的顶点——在弱肉强食的异世界中与才华横溢的伙伴们共同生存的怪物转生幻想故事就此展开!

部分资源为软字幕,移动端推荐播放器:MxPlayer,nPlayer,infuse ,其他播放器请自行尝试。

部分资源为软字幕,电脑端推荐播放器:PotPlayer,完美解码,KMPLAYER,其他播放器请自行尝试。

下载端推荐纯BT下载软件:qBittorrent,Bitcomet,uTorrent ,其他下载软件请自行尝试。不支持吸血迅雷。

##### MediaInfo ######
General
Unique ID : 306744217434906658157645113509882783355 (0xE6C4C9909799337520F1A412F5F2667B)
Complete name : Re.Monster.S01E03.2024.1080p.WEB-DL.H264.AAC-ZeroTV.mkv
Duration : 23 min 40 s
Overall bit rate : 7 767 kb/s

Video
ID : 1
Format : AVC
Format/Info : Advanced Video Codec
Format profile : [email protected]
Format settings : CABAC / 1 Ref Frames
Format settings, CABAC : Yes
Format settings, Reference frames : 1 frame
Format settings, GOP : M=1, N=60
Codec ID : V_MPEG4/ISO/AVC
Duration : 23 min 40 s
Bit rate mode : Constant
Bit rate : 8 000 kb/s
Width : 1 920 pixels
Height : 1 080 pixels
Display aspect ratio : 16:9
Frame rate mode : Constant
Frame rate : 29.970 (30000/1001) FPS
Color space : YUV
Chroma subsampling : 4:2:0
Bit depth : 8 bits
Scan type : Progressive
Bits/(Pixel*Frame) : 0.129
Stream size : 1.26 GiB (98%)
Language : English
Default : Yes
Forced : No

Audio
ID : 2
Format : AAC LC
Format/Info : Advanced Audio Codec Low Complexity
Codec ID : A_AAC-2
Duration : 23 min 39 s
Bit rate : 125 kb/s
Channel(s) : 2 channels
Channel layout : L R
Sampling rate : 48.0 kHz
Frame rate : 46.875 FPS (1024 SPF)
Compression mode : Lossy
Stream size : 21.2 MiB (2%)
Title : 日语
Language : Japanese
Default : Yes
Forced : No


点击图片可查看大图

软字幕无法在截图上展现,HDR版本/杜比视界版本截图会出现颜色异常,请使用支持的设备播放!



1 个附件 售价 大小 下载 时间

Re.Monster.S01.2024.1080p.WEB-DL.H264.AAC-ZeroTV[1LOU.ME].torrent 0 金币 5.60K 280 次 1月前

#1楼
发帖时间:2024-04-16 02:23:17   |   回复数:0
游客组