BILL36
隐世仙人♂

[2024] [大陆] [剧情] [WEB-4K] 步步倾心[第22-23集][国语配音/中文字幕].Step.by.Step.Love.S01.2024.2160p.WEB-DL.H265.AAC-LelveT

-->

完整标题:步步倾心[第22-23集][国语配音/中文字幕].Step.by.Step.Love.S01.2024.2160p.WEB-DL.H265.AAC-LelveTV 1.00GB



◎标  题 步步倾心
◎译  名 Loving Step by Step
◎年  代 2024
◎产  地 中国大陆
◎类  别 剧情 / 爱情
◎语  言 汉语普通话
◎IMDb链接 https://www.imdb.com/title//
◎豆瓣链接 https://movie.douban.com/subject/36364602/
◎导  演 沈金飞 Jinfei Shen
◎编  剧 康卯卯 Maomao Kang
◎演  员 赵志伟 Zhiwei Zhao
      卢洋洋 Hanna Lu
      史超 Chao Shi
      张皓越 Haoyue Zhang

◎简  介
    “假面”总裁路岑阳,赵志伟饰,遇上“刺猬”千金步苒,卢洋洋饰,当猎人爱上猎物,恨意化作绕指柔,二人不曾想跌入了一场情缘之战…

部分资源为软字幕,移动端推荐播放器:MxPlayer,nPlayer,infuse ,其他播放器请自行尝试。

部分资源为软字幕,电脑端推荐播放器:PotPlayer,完美解码,KMPLAYER,其他播放器请自行尝试。

下载端推荐纯BT下载软件:qBittorrent,Bitcomet,uTorrent ,其他下载软件请自行尝试。不支持吸血迅雷。

##### MediaInfo ######
General
Complete name : Step.by.Step.Love.S01E22.2024.2160p.WEB-DL.H265.AAC-LelveTV.mp4
Duration : 38 min 29 s
Overall bit rate mode : Variable
Overall bit rate : 1 641 kb/s

Video
ID : 1
Format : HEVC
Format/Info : High Efficiency Video Coding
Format profile : Main@L5@Main
Codec ID : hev1
Codec ID/Info : High Efficiency Video Coding
Duration : 38 min 29 s
Source duration : 38 min 29 s
Bit rate : 1 509 kb/s
Width : 3 840 pixels
Height : 1 600 pixels
Display aspect ratio : 2.40:1
Frame rate mode : Variable
Frame rate : 25.000 FPS
Minimum frame rate : 24.993 FPS
Maximum frame rate : 25.007 FPS
Color space : YUV
Chroma subsampling : 4:2:0
Bit depth : 8 bits
Bits/(Pixel*Frame) : 0.010
Stream size : 415 MiB (92%)
Source stream size : 415 MiB (92%)
Writing library : Tencent-V265-1.6.9.1-p1k184g16lh64f4ra1.
Color range : Limited
Color primaries : BT.709
Transfer characteristics : BT.709
Matrix coefficients : BT.709
Codec configuration box : hvcC

Audio
ID : 2
Format : AAC LC
Format/Info : Advanced Audio Codec Low Complexity
Codec ID : mp4a-40-2
Duration : 38 min 29 s
Bit rate mode : Variable
Bit rate : 125 kb/s
Maximum bit rate : 129 kb/s
Channel(s) : 2 channels
Channel layout : L R
Sampling rate : 48.0 kHz
Frame rate : 46.875 FPS (1024 SPF)
Compression mode : Lossy
Stream size : 34.5 MiB (8%)
Default : Yes
Alternate group : 1


点击图片可查看大图

软字幕无法在截图上展现,HDR版本/杜比视界版本截图会出现颜色异常,请使用支持的设备播放!



1 个附件 售价 大小 下载 时间

Step.by.Step.Love.S01.2024.2160p.WEB-DL.H265.AAC-LelveTV[1LOU.ME].torrent 0 金币 5.00K 238 次 1月前

#1楼
发帖时间:2024-04-16 02:08:03   |   回复数:0
游客组