BILL36
隐世仙人♂

[2024] [大陆] [剧情] [WEB-1080P] 步步倾心[第22-23集][国语配音/中文字幕].Step.by.Step.Love.S01.2024.1080p.WEB-DL.H264.AAC-LelveT

-->

完整标题:步步倾心[第22-23集][国语配音/中文字幕].Step.by.Step.Love.S01.2024.1080p.WEB-DL.H264.AAC-LelveTV 0.64GB



◎标  题 步步倾心
◎译  名 Loving Step by Step
◎年  代 2024
◎产  地 中国大陆
◎类  别 剧情 / 爱情
◎语  言 汉语普通话
◎IMDb链接 https://www.imdb.com/title//
◎豆瓣链接 https://movie.douban.com/subject/36364602/
◎导  演 沈金飞 Jinfei Shen
◎编  剧 康卯卯 Maomao Kang
◎演  员 赵志伟 Zhiwei Zhao
      卢洋洋 Hanna Lu
      史超 Chao Shi
      张皓越 Haoyue Zhang

◎简  介
    “假面”总裁路岑阳,赵志伟饰,遇上“刺猬”千金步苒,卢洋洋饰,当猎人爱上猎物,恨意化作绕指柔,二人不曾想跌入了一场情缘之战…

部分资源为软字幕,移动端推荐播放器:MxPlayer,nPlayer,infuse ,其他播放器请自行尝试。

部分资源为软字幕,电脑端推荐播放器:PotPlayer,完美解码,KMPLAYER,其他播放器请自行尝试。

下载端推荐纯BT下载软件:qBittorrent,Bitcomet,uTorrent ,其他下载软件请自行尝试。不支持吸血迅雷。

##### MediaInfo ######
General
Complete name : Step.by.Step.Love.S01E22.2024.1080p.WEB-DL.H264.AAC-LelveTV.mp4
Duration : 38 min 29 s
Overall bit rate mode : Variable
Overall bit rate : 1 148 kb/s

Video
ID : 1
Format : AVC
Format/Info : Advanced Video Codec
Format profile : High@L4
Format settings : CABAC / 4 Ref Frames
Format settings, CABAC : Yes
Format settings, Reference frames : 4 frames
Codec ID : avc1
Codec ID/Info : Advanced Video Coding
Duration : 38 min 29 s
Source duration : 38 min 29 s
Bit rate : 1 049 kb/s
Width : 1 920 pixels
Height : 800 pixels
Display aspect ratio : 2.40:1
Frame rate mode : Variable
Frame rate : 25.000 FPS
Minimum frame rate : 24.993 FPS
Maximum frame rate : 25.007 FPS
Color space : YUV
Chroma subsampling : 4:2:0
Bit depth : 8 bits
Scan type : Progressive
Bits/(Pixel*Frame) : 0.027
Stream size : 289 MiB (91%)
Source stream size : 289 MiB (91%)
Color range : Limited
Color primaries : BT.709
Transfer characteristics : BT.709
Matrix coefficients : BT.709
Codec configuration box : avcC

Audio
ID : 2
Format : AAC LC
Format/Info : Advanced Audio Codec Low Complexity
Codec ID : mp4a-40-2
Duration : 38 min 29 s
Bit rate mode : Variable
Bit rate : 93.4 kb/s
Maximum bit rate : 97.1 kb/s
Channel(s) : 2 channels
Channel layout : L R
Sampling rate : 48.0 kHz
Frame rate : 46.875 FPS (1024 SPF)
Compression mode : Lossy
Stream size : 25.7 MiB (8%)
Default : Yes
Alternate group : 1


点击图片可查看大图

软字幕无法在截图上展现,HDR版本/杜比视界版本截图会出现颜色异常,请使用支持的设备播放!



1 个附件 售价 大小 下载 时间

Step.by.Step.Love.S01.2024.1080p.WEB-DL.H264.AAC-LelveTV[1LOU.ME].torrent 0 金币 4.10K 182 次 1月前

#1楼
发帖时间:2024-04-16 02:07:05   |   回复数:0
游客组