BILL36
隐世仙人♂

[2024] [大陆] [剧情] [WEB-4K] 承欢记[第15-16集][国语配音/中文字幕].Best.Choice.Ever.S01.2024.2160p.WEB-DL.H265.AAC-LelveTV

-->

完整标题:承欢记[第15-16集][国语配音/中文字幕].Best.Choice.Ever.S01.2024.2160p.WEB-DL.H265.AAC-LelveTV 2.21GB



◎标  题 承欢记
◎年  代 2024
◎产  地 中国大陆
◎类  别 剧情 / 爱情
◎语  言 汉语普通话
◎IMDb链接 https://www.imdb.com/title/tt28183054/
◎豆瓣链接 https://movie.douban.com/subject/36145248/
◎导  演 田宇 Yu Tian
      王成欣 Chengxin Wang
◎编  剧 李晶凌 Jingling Li
      伍湘玲 Shinning WU
      胡晓钰 Xiaoyu Hu
◎演  员 杨紫 Andy Yang
      许凯 Kai Xu
      牛骏峰 Junfeng Niu
      许龄月 Amelie Xu
      张耀 Yao Zhang
      何赛飞 Saifei He
      姚安濂 Anlian Yao
      吴彦姝 Yanshu Wu
      孙之鸿 Zhihong Sun
      张彦博 Yanbo Zhang

◎简  介
    该剧改编自亦舒经典同名小说。   出身于上海普通人家的95后女孩麦承欢(杨紫 饰),在母亲刘婉玉(何赛飞 饰)的催促下,与男友辛家亮(牛骏峰 饰)议婚。但辛家优渥的经济条件让这段原本平等的感情关系变得失衡,同时,麦母对女儿终身大事的过度插手,加速了麦承欢和辛家亮的分手。在孝顺父母和忠于自我之间,麦承欢艰难求索,她逐步从母亲强势的关爱中挣脱,在 工作上更专心进取。麦承欢的蜕变得到了继祖母的认可,把自己最看重的酒店经营重任托付给她。继祖母的亲孙、职业酒店经理人姚志明(许凯 饰)在与麦承欢的合作中逐渐对她理解并认同,俩人成为工作伙伴,携手并进。而在生活中,姚志明被麦家烟火气之下的真情包围,与麦承欢的感情逐渐升温。从“承欢膝下”到“成就自我”,麦承欢走出了一条独属于自己的不平凡的成长之路。

部分资源为软字幕,移动端推荐播放器:MxPlayer,nPlayer,infuse ,其他播放器请自行尝试。

部分资源为软字幕,电脑端推荐播放器:PotPlayer,完美解码,KMPLAYER,其他播放器请自行尝试。

下载端推荐纯BT下载软件:qBittorrent,Bitcomet,uTorrent ,其他下载软件请自行尝试。不支持吸血迅雷。

##### MediaInfo ######
General
Complete name : Best.Choice.Ever.S01E15.2024.2160p.WEB-DL.H265.AAC-LelveTV.mp4
Duration : 45 min 48 s
Overall bit rate mode : Variable
Overall bit rate : 3 257 kb/s

Video
ID : 1
Format : HEVC
Format/Info : High Efficiency Video Coding
Format profile : Main@L5@Main
Codec ID : hev1
Codec ID/Info : High Efficiency Video Coding
Duration : 45 min 48 s
Source duration : 45 min 48 s
Bit rate : 3 125 kb/s
Width : 3 840 pixels
Height : 2 160 pixels
Display aspect ratio : 16:9
Frame rate mode : Variable
Frame rate : 25.000 FPS
Minimum frame rate : 24.993 FPS
Maximum frame rate : 25.007 FPS
Color space : YUV
Chroma subsampling : 4:2:0
Bit depth : 8 bits
Bits/(Pixel*Frame) : 0.015
Stream size : 1.00 GiB (96%)
Source stream size : 1.00 GiB (96%)
Writing library : Tencent-V265-1.6.9.1-p1k184g16lh64f4ra1.
Color range : Limited
Color primaries : BT.709
Transfer characteristics : BT.709
Matrix coefficients : BT.709
Codec configuration box : hvcC

Audio
ID : 2
Format : AAC LC
Format/Info : Advanced Audio Codec Low Complexity
Codec ID : mp4a-40-2
Duration : 45 min 48 s
Bit rate mode : Variable
Bit rate : 125 kb/s
Maximum bit rate : 129 kb/s
Channel(s) : 2 channels
Channel layout : L R
Sampling rate : 48.0 kHz
Frame rate : 46.875 FPS (1024 SPF)
Compression mode : Lossy
Stream size : 41.1 MiB (4%)
Default : Yes
Alternate group : 1


点击图片可查看大图

软字幕无法在截图上展现,HDR版本/杜比视界版本截图会出现颜色异常,请使用支持的设备播放!



1 个附件 售价 大小 下载 时间

Best.Choice.Ever.S01.2024.2160p.WEB-DL.H265.AAC-LelveTV[1LOU.ME].torrent 0 金币 8.04K 532 次 1月前

#1楼
发帖时间:2024-04-16 00:22:32   |   回复数:0
游客组