BILL36
隐世仙人♂

[2024] [大陆] [剧情] [WEB-1080P] 手术直播间[第20-21集][国语配音/中文字幕].Live.Surgery.Room.S01.2024.1080p.WEB-DL.H264.AAC-Black

-->

完整标题:手术直播间[第20-21集][国语配音/中文字幕].Live.Surgery.Room.S01.2024.1080p.WEB-DL.H264.AAC-BlackTV 0.45GB



◎标  题 手术直播间
◎年  代 2024
◎产  地 中国大陆
◎类  别 剧情
◎语  言 汉语普通话
◎IMDb链接 https://www.imdb.com/title/tt27931132/
◎豆瓣链接 https://movie.douban.com/subject/35597519/
◎导  演 裘仲维 Zhongwei Qiu
◎编  剧 十四阙
      真熊初墨
◎演  员 张彬彬 Binbin Zhang
      代旭 Xu Dai
      刘敏涛 Mintao Liu
      杨雨潼 Yutong Yang
      袁姗姗 Shanshan Yuan
      赵志伟 Zhiwei Zhao
      刘冠成 Guancheng Liu
      安沺 Vivienne Tien
      王沛禄 Peilu Wang
      高亮 Liang Gao
      李建义 Jianyi Li
      章申 Shen Zhang

◎简  介
    天才医生郑仁(张彬彬 饰)因要查探十八年前“冤案”的真相来到海城医院,与急诊科“咸鱼”主任苏云(代旭 饰)组成了一对“欢喜冤家”,在相互扶持间攻克了一个又一个疑难病症,开启了一段“爽、燃、酷、嗨”的医学之旅。在此期间,郑仁不仅揭开了当年事件的“残酷真相”,也同时与苏云、林渊、谢伊人等人组成了“连体分离术”攻坚小组,秉持着自己心中那一份白衣天使的初心,在反复的模拟训练和坚定不移的医学精神指引下,实现了拯救生命、治愈病患、温暖人心的医生理想。

部分资源为软字幕,移动端推荐播放器:MxPlayer,nPlayer,infuse ,其他播放器请自行尝试。

部分资源为软字幕,电脑端推荐播放器:PotPlayer,完美解码,KMPLAYER,其他播放器请自行尝试。

下载端推荐纯BT下载软件:qBittorrent,Bitcomet,uTorrent ,其他下载软件请自行尝试。不支持吸血迅雷。

##### MediaInfo ######
General
Unique ID : 298150424213802570434989258213195591056 (0xE04DAED898E643D2171273D366712D90)
Complete name : Live.Surgery.Room.S01E20.2024.1080p.WEB-DL.H264.AAC-BlackTV.mkv
Duration : 45 min 19 s
Overall bit rate : 671 kb/s

Video
ID : 1
Format : AVC
Format/Info : Advanced Video Codec
Format profile : High@L5
Format settings : CABAC / 5 Ref Frames
Format settings, CABAC : Yes
Format settings, Reference frames : 5 frames
Codec ID : V_MPEG4/ISO/AVC
Duration : 45 min 19 s
Bit rate : 573 kb/s
Width : 1 920 pixels
Height : 808 pixels
Display aspect ratio : 2.40:1
Frame rate mode : Constant
Frame rate : 25.000 FPS
Color space : YUV
Chroma subsampling : 4:2:0
Bit depth : 8 bits
Scan type : Progressive
Bits/(Pixel*Frame) : 0.015
Stream size : 186 MiB (85%)
Language : Chinese
Default : Yes
Forced : No
Color range : Limited
Color primaries : BT.709
Transfer characteristics : BT.709
Matrix coefficients : BT.709
VENDOR_ID : [0][0][0][0]

Audio
ID : 2
Format : AAC LC
Format/Info : Advanced Audio Codec Low Complexity
Codec ID : A_AAC-2
Duration : 45 min 19 s
Bit rate : 96.0 kb/s
Channel(s) : 2 channels
Channel layout : L R
Sampling rate : 44.1 kHz
Frame rate : 43.066 FPS (1024 SPF)
Compression mode : Lossy
Stream size : 31.1 MiB (14%)
Title : Mandarin [AAC2.0]
Language : Chinese
Default : No
Forced : No
VENDOR_ID : [0][0][0][0]

Menu
00:03:56.736 : zh:苏云自责让苏离赔钱 郑仁直言等他准备好
00:14:15.276 : zh:贺前看望患者 郑仁苏云安慰贺前
00:20:17.658 : zh:林渊不愿离开海城 林母以为女儿喜欢郑仁
00:28:03.433 : zh:郑仁为任秀做手术 任父大闹医院


点击图片可查看大图

软字幕无法在截图上展现,HDR版本/杜比视界版本截图会出现颜色异常,请使用支持的设备播放!



1 个附件 售价 大小 下载 时间

Live.Surgery.Room.S01.2024.1080p.WEB-DL.H264.AAC-BlackTV[1LOU.ME].torrent 0 金币 3.66K 168 次 1月前

#1楼
发帖时间:2024-04-16 00:12:19   |   回复数:0
游客组