BILL36
隐世仙人♂

[2024] [台湾] [喜剧] [WEB-4K] 完全省钱恋爱手册[第01-02集][国语音轨/简繁英字幕].Love.On.a.Shoestring.S01.2024.2160p.IQ.WEB-DL.H265

-->

完整标题:完全省钱恋爱手册[第01-02集][国语音轨/简繁英字幕].Love.On.a.Shoestring.S01.2024.2160p.IQ.WEB-DL.H265.AAC-BlackTV 2.20GB



◎标  题 完全省钱恋爱手册
◎片  名 完全省錢戀愛手冊
◎年  代 2024
◎产  地 中国台湾 / 新加坡
◎类  别 喜剧 / 爱情
◎语  言 汉语普通话
◎IMDb链接 https://www.imdb.com/title/tt31861378/
◎豆瓣链接 https://movie.douban.com/subject/36613833/
◎演  员 郭书瑶 Shu-yau Kuo
      林子闳 Sam Lin
      林鹤轩 He-Hsuan Lin
      黄柏峰 Hugh Huang
      陈语安 Katie Chen
      周智慧 Cheryl Chou
      胡煜诗 Jernelle Oh
      邓伟德 Tyler Ten

◎简  介
    不追求恋爱的超节俭上班族简可可(郭书瑶 饰),却碰上花钱如流水的王海阔(林子闳 饰),热爱时尚的Elly(周智慧 饰)与简可可互看不顺眼,还有存爱甜心孙佳莉(陈语安 饰),遇上呆萌大学生李元崇(黄柏峰 饰),价值观天差地别的他们如何在爱情与面包中做选择。

部分资源为软字幕,移动端推荐播放器:MxPlayer,nPlayer,infuse ,其他播放器请自行尝试。

部分资源为软字幕,电脑端推荐播放器:PotPlayer,完美解码,KMPLAYER,其他播放器请自行尝试。

下载端推荐纯BT下载软件:qBittorrent,Bitcomet,uTorrent ,其他下载软件请自行尝试。不支持吸血迅雷。

##### MediaInfo ######
General
Unique ID : 81890571181039761906342806995344203492 (0x3D9B8CE1C669C904736C6FBAE08A9EE4)
Complete name : Love.On.a.Shoestring.S01E01.2024.2160p.IQ.WEB-DL.H265.AAC-BlackTV.mkv
Duration : 46 min 8 s
Overall bit rate : 3 212 kb/s

Video
ID : 1
Format : HEVC
Format/Info : High Efficiency Video Coding
Format profile : Main@L5@Main
Codec ID : V_MPEGH/ISO/HEVC
Duration : 46 min 8 s
Bit rate : 3 019 kb/s
Width : 3 840 pixels
Height : 2 160 pixels
Display aspect ratio : 16:9
Frame rate mode : Constant
Frame rate : 25.000 FPS
Color space : YUV
Chroma subsampling : 4:2:0
Bit depth : 8 bits
Bits/(Pixel*Frame) : 0.015
Stream size : 996 MiB (94%)
Language : Chinese
Default : Yes
Forced : No
Color range : Limited

Audio
ID : 2
Format : AAC LC
Format/Info : Advanced Audio Codec Low Complexity
Codec ID : A_AAC-2
Duration : 46 min 8 s
Bit rate : 192 kb/s
Channel(s) : 2 channels
Channel layout : L R
Sampling rate : 44.1 kHz
Frame rate : 43.066 FPS (1024 SPF)
Compression mode : Lossy
Stream size : 62.7 MiB (6%)
Title : Mandarin [AAC2.0]
Language : Chinese
Default : No
Forced : No

Text #1
ID : 3
Format : UTF-8
Codec ID : S_TEXT/UTF8
Codec ID/Info : UTF-8 Plain Text
Duration : 44 min 55 s
Bit rate : 51 b/s
Frame rate : 0.325 FPS
Count of elements : 877
Stream size : 17.0 KiB (0%)
Title : Simplified Chinese
Language : Chinese
Default : Yes
Forced : No

Text #2
ID : 4
Format : UTF-8
Codec ID : S_TEXT/UTF8
Codec ID/Info : UTF-8 Plain Text
Duration : 44 min 55 s
Bit rate : 48 b/s
Frame rate : 0.312 FPS
Count of elements : 842
Stream size : 16.0 KiB (0%)
Title : Traditional Chinese
Language : Chinese
Default : No
Forced : No

Text #3
ID : 5
Format : UTF-8
Codec ID : S_TEXT/UTF8
Codec ID/Info : UTF-8 Plain Text
Duration : 45 min 4 s
Bit rate : 68 b/s
Frame rate : 0.325 FPS
Count of elements : 878
Stream size : 22.5 KiB (0%)
Title : English
Language : English
Default : No
Forced : No


点击图片可查看大图

软字幕无法在截图上展现,HDR版本/杜比视界版本截图会出现颜色异常,请使用支持的设备播放!



1 个附件 售价 大小 下载 时间

Love.On.a.Shoestring.S01.2024.2160p.IQ.WEB-DL.H265.AAC-BlackTV[1LOU.ME].torrent 0 金币 8.04K 413 次 1月前

#1楼
发帖时间:2024-04-16 00:11:22   |   回复数:0
游客组