squallzhao
一代宗师

[2022] [其它] [动作] [BD-720P] 印尼黑帮:沉默之怒 Preman.Silent.Fury.2022.INDONESIAN.720p.BluRay.x264.DTS-MT 6.73GB

-->

帖子完整标题:印尼黑帮:沉默之怒 Preman.Silent.Fury.2022.INDONESIAN.720p.BluRay.x264.DTS-MT 6.73GB



◎标  题 印尼黑帮:沉默之怒
◎片  名 Preman: Silent Fury
◎年  代 2022
◎产  地 印度尼西亚
◎类  别 动作
◎语  言 印尼语
◎上映日期 2022-09-27(印度尼西亚)
◎IMDb评分 6.9/10 (61人评价)
◎IMDb链接 https://www.imdb.com/title/tt22074590/
◎豆瓣链接 https://movie.douban.com/subject/36108530/
◎片  长 91分钟
◎演  员 保罗·阿古斯塔 Paul Agusta
      卜提·阿尤蒂雅 Putri Ayudya
      卡瓦·伊斯卡克 Khiva Iskak

◎简  介
  After his son witnesses a brutal murder by a notorious crime boss, a deaf Indonesian gangster is thrust into the fight of his life when he takes on his dangerous former allies, including a sociopath assassin, in order to protect his child.

Video
ID : 1
Format : AVC
Format/Info : Advanced Video Codec
Format profile : [email protected]
Format settings : CABAC / 12 Ref Frames
Format settings, CABAC : Yes
Format settings, Reference frames : 12 frames
Codec ID : V_MPEG4/ISO/AVC
Duration : 1 h 31 min
Bit rate : 8 990 kb/s
Width : 1 280 pixels
Height : 536 pixels
Display aspect ratio : 2.40:1
Frame rate mode : Constant
Frame rate : 24.000 FPS
Color space : YUV
Chroma subsampling : 4:2:0
Bit depth : 8 bits
Scan type : Progressive
Bits/(Pixel*Frame) : 0.546
Stream size : 5.76 GiB (86%)
Writing library : x264 core 157 r2938 2b00a84 [email protected] Mod
Encoding settings : cabac=1 / ref=12 / deblock=1:-3:-3 / analyse=0x3:0x133 / me=umh / subme=10 / psy=1 / psy_rd=1.05:0.00 / mixed_ref=1 / me_range=32 / chroma_me=1 / trellis=2 / 8x8dct=1 / cqm=0 / deadzone=21,11 / fast_pskip=0 / chroma_qp_offset=-2 / threads=12 / lookahead_threads=2 / sliced_threads=0 / nr=0 / decimate=0 / interlaced=0 / bluray_compat=0 / constrained_intra=0 / bframes=8 / b_pyramid=2 / b_adapt=2 / b_bias=0 / direct=3 / weightb=1 / open_gop=0 / weightp=2 / keyint=250 / keyint_min=24 / scenecut=40 / intra_refresh=0 / rc_lookahead=250 / rc=crf / mbtree=0 / crf=16.8 / qcomp=0.60 / qpmin=0 / qpmax=69 / qpstep=4 / vbv_maxrate=62500 / vbv_bufsize=78125 / crf_max=0.0 / nal_hrd=none / filler=0 / ip_ratio=1.30 / pb_ratio=1.20 / aq=3:0.80
Language : English
Default : Yes
Forced : No
Color range : Limited
Color primaries : BT.709
Matrix coefficients : BT.709

Audio
ID : 2
Format : DTS
Format/Info : Digital Theater Systems
Codec ID : A_DTS
Duration : 1 h 31 min
Bit rate mode : Constant
Bit rate : 1 509 kb/s
Channel(s) : 6 channels
Channel layout : C L R Ls Rs LFE
Sampling rate : 48.0 kHz
Frame rate : 93.750 FPS (512 SPF)
Bit depth : 16 bits
Compression mode : Lossy
Stream size : 990 MiB (14%)
Language : Indonesian
Default : Yes
Forced : No

Text
ID : 3
Format : UTF-8
Codec ID : S_TEXT/UTF8
Codec ID/Info : UTF-8 Plain Text
Duration : 1 h 24 min
Bit rate : 17 b/s
Frame rate : 0.092 FPS
Count of elements : 468
Stream size : 10.8 KiB (0%)
Language : English
Default : Yes
Forced : No

Menu
00:00:00.000 : en:Chapter 01
00:08:48.833 : en:Chapter 02
00:16:28.292 : en:Chapter 03
00:25:32.125 : en:Chapter 04
00:34:31.667 : en:Chapter 05
00:40:02.042 : en:Chapter 06
00:51:02.625 : en:Chapter 07
00:57:21.917 : en:Chapter 08
01:06:54.167 : en:Chapter 09
01:15:59.875 : en:Chapter 10





1 个附件 售价 大小 下载 时间

Preman.Silent.Fury.2022.INDONESIAN.720p.BluRay.x264.DTS-MT.torrent 0 金币 17.45K 945 次 2月前

#1楼
发帖时间:2022-09-29 17:53:20   |   回复数:0
游客组