travismk
一代宗师

[2013] [欧美] [惊悚] [BD-4K] 鬼玩人 Evil.Dead.2013.EXTENDED.2160p.BluRay.x264.8bit.SDR.DTS-HD.MA.5.1-SWTYBLZ 26.

-->

帖子完整标题:鬼玩人 Evil.Dead.2013.EXTENDED.2160p.BluRay.x264.8bit.SDR.DTS-HD.MA.5.1-SWTYBLZ 26.03GB



◎标  题 鬼玩人
◎译  名 尸变(台) / 鬼玩人4
◎片  名 Evil Dead
◎年  代 2013
◎产  地 美国
◎类  别 惊悚 / 恐怖
◎语  言 英语
◎上映日期 2013年4月5日
◎IMDb评分 6.5/10 (161926人评价)
◎IMDb链接 https://www.imdb.com/title/tt1288558/
◎豆瓣评分 6.6/10 (12890人评价)
◎豆瓣链接 https://movie.douban.com/subject/3212400/
◎片  长 91 分钟
◎导  演 费德·阿尔瓦雷兹
◎编  剧 费德·阿尔瓦雷兹
      迪亚波罗·科蒂
      罗多·赛亚格斯
◎演  员 简·利维
      希罗·弗南德兹
      杰西卡·卢卡斯
      卢·泰勒·普奇
      伊丽莎白·布莱克摩尔
      Rupert Degas
      布鲁斯·坎贝尔

◎简  介
  和善的青年大卫(希罗·弗南德兹 Shiloh Fernandez 饰)带着久未谋面且饱受毒瘾困扰的妹妹米娅(简·拉维 Jane Levy 饰)以及娜塔莉(伊丽莎白·布莱克摩尔 Elizabeth Blackmore 饰)、艾瑞克(卢·泰勒·普奇 Lou Taylor Pucci 饰)、奥莉维亚(杰西卡·卢卡斯 Jessica Lucas 饰)等朋友,驱车来到了一处偏远幽静的所在,展开了米娅痛苦的戒毒之旅。夜晚,他们在空无一人的小木屋内发现了一个弥漫着浓重尸臭的地下室以及一本散发着不祥气息的书。艾瑞克按捺不住心中的好奇,解除了这本书的封印。

当他念出了书中一个个禁忌的名字时,魔鬼相继聚集在木屋的周围。仿佛永无止境的噩梦,降临在他们每一个人的脑海之中……

Video
ID : 1
Format : AVC
Format/Info : Advanced Video Codec
Format profile : [email protected]
Format settings : CABAC / 5 Ref Frames
Format settings, CABAC : Yes
Format settings, Reference frames : 5 frames
Codec ID : V_MPEG4/ISO/AVC
Duration : 1 h 36 min
Bit rate : 33.9 Mb/s
Width : 3 840 pixels
Height : 1 606 pixels
Display aspect ratio : 2.40:1
Frame rate mode : Constant
Frame rate : 23.976 (24000/1001/189150) FPS
Color space : YUV
Chroma subsampling : 4:2:0
Bit depth : 8 bits
Scan type : Progressive
Bits/(Pixel*Frame) : 0.229
Stream size : 22.8 GiB (88%)
Writing library : x264 core 157 r2935 545de2f
Encoding settings : cabac=1 / ref=5 / deblock=1:-1:-1 / analyse=0x3:0x113 / me=umh / subme=10 / psy=1 / psy_rd=1.00:0.15 / mixed_ref=1 / me_range=48 / chroma_me=1 / trellis=2 / 8x8dct=1 / cqm=0 / deadzone=21,11 / fast_pskip=1 / chroma_qp_offset=-3 / threads=48 / lookahead_threads=4 / sliced_threads=0 / nr=0 / decimate=0 / interlaced=0 / bluray_compat=0 / constrained_intra=0 / bframes=3 / b_pyramid=2 / b_adapt=2 / b_bias=0 / direct=3 / weightb=1 / open_gop=0 / weightp=2 / keyint=250 / keyint_min=23 / scenecut=40 / intra_refresh=0 / rc_lookahead=50 / rc=crf / mbtree=1 / crf=18.0 / qcomp=0.60 / qpmin=0 / qpmax=69 / qpstep=4 / ip_ratio=1.40 / aq=1:1.00
Default : Yes
Forced : No

Audio #1
ID : 2
ID in the original source medium : 4352 (0x1100)
Format : DTS XLL
Format/Info : Digital Theater Systems
Commercial name : DTS-HD Master Audio
Codec ID : A_DTS
Duration : 1 h 36 min
Bit rate mode : Variable
Bit rate : 3 980 kb/s
Channel(s) : 6 channels
Channel layout : C L R Ls Rs LFE
Sampling rate : 48.0 kHz
Frame rate : 93.750 FPS (512 SPF)
Bit depth : 24 bits
Compression mode : Lossless
Stream size : 2.68 GiB (10%)
Title : DTS-HD MA 5.1
Language : English
Default : Yes
Forced : No
Original source medium : Blu-ray

Audio #2
ID : 3
Format : AC-3
Format/Info : Audio Coding 3
Commercial name : Dolby Digital
Codec ID : A_AC3
Duration : 1 h 36 min
Bit rate mode : Constant
Bit rate : 640 kb/s
Channel(s) : 6 channels
Channel layout : L R C LFE Ls Rs
Sampling rate : 48.0 kHz
Frame rate : 31.250 FPS (1536 SPF)
Compression mode : Lossy
Stream size : 441 MiB (2%)
Title : DD 5.1
Language : English
Service kind : Complete Main
Default : No
Forced : No

Text #1
ID : 4
Format : UTF-8
Codec ID : S_TEXT/UTF8
Codec ID/Info : UTF-8 Plain Text
Duration : 1 h 34 min
Bit rate : 25 b/s
Frame rate : 0.105 FPS
Count of elements : 595
Stream size : 17.4 KiB (0%)
Language : English
Default : Yes
Forced : No

Text #2
ID : 5
Format : UTF-8
Codec ID : S_TEXT/UTF8
Codec ID/Info : UTF-8 Plain Text
Duration : 1 h 35 min
Bit rate : 41 b/s
Frame rate : 0.191 FPS
Count of elements : 1101
Stream size : 29.1 KiB (0%)
Title : SDH
Language : English
Default : No
Forced : No

Text #3
ID : 6
ID in the original source medium : 4768 (0x12A0)
Format : PGS
Muxing mode : zlib
Codec ID : S_HDMV/PGS
Codec ID/Info : Picture based subtitle format used on BDs/HD-DVDs
Duration : 1 h 35 min
Bit rate : 26.5 kb/s
Frame rate : 0.383 FPS
Count of elements : 2206
Stream size : 18.2 MiB (0%)
Language : English
Default : No
Forced : No
Original source medium : Blu-ray

Menu
00:00:00.000 : en:Chapter 01
00:07:12.849 : en:Chapter 02
00:15:55.496 : en:Chapter 03
00:24:17.956 : en:Chapter 04
00:31:40.773 : en:Chapter 05
00:41:39.872 : en:Chapter 06
00:50:31.278 : en:Chapter 07
00:57:19.102 : en:Chapter 08
01:03:36.687 : en:Chapter 09
01:11:23.404 : en:Chapter 10
01:19:02.863 : en:Chapter 11
01:27:30.954 : en:Chapter 12
01:36:21.400 : en:Chapter 13





1 个附件 售价 大小 下载 时间

Evil.Dead.2013.EXTENDED.2160p.BluRay.x264.8bit.SDR.DTS-HD.MA.5.1-SWTYBLZ.torrent 0 金币 33.26K 735 次 2月前

#1楼
发帖时间:2022-09-29 16:50:11   |   回复数:0
游客组